<?xml version="1.0" standalone="no"?>
<!DOCTYPE svg PUBLIC "-//W3C//DTD SVG 1.1//EN" "http://www.w3.org/Graphics/SVG/1.1/DTD/svg11.dtd" >
<svg>
<metadata>
Created by FontForge 20090622 at Mon May  7 11:14:43 2018
 By deploy user
Copyright (c) Philippe and Fran&#195;&#167;ois BLONDEL, 1998. 2009 All rights reserved.
</metadata>
<defs>
<font id="Sophie" horiz-adv-x="500" >
  <font-face 
    font-family="Sophie"
    font-weight="400"
    font-stretch="normal"
    units-per-em="1000"
    panose-1="0 0 0 0 0 0 0 0 0 0"
    ascent="800"
    descent="-200"
    x-height="406"
    cap-height="561"
    bbox="-286 -361 2131 803"
    underline-thickness="50"
    underline-position="-75"
    unicode-range="U+0020-U+E001"
  />
<missing-glyph 
 />
    <glyph glyph-name=".notdef" 
 />
    <glyph glyph-name="space" unicode=" " 
 />
    <glyph glyph-name="exclam" unicode="!" horiz-adv-x="317" 
d="M175 403q1 -3 3 -12t3.5 -19t3.5 -19t3 -13q0 -2 1 -7.5t2 -12t2 -12t1 -6.5q1 -4 3 -13.5t3 -11.5q2 -3 6.5 -13t6.5 -12q1 -2 5.5 -6.5l6.5 -6.5q2 -1 6.5 -3t6.5 -3h13q3 2 10 9.5t9 9.5v19q0 1 -1 6.5t-2.5 12t-2.5 12t-1 7.5q-1 4 -2 11l-2 14t-1.5 12.5t-0.5 6.5
q0 6 -1 31t-2 54t-2 54t-1 31q0 2 -1 10.5t-2.5 18t-2.5 18t-1 10.5v163q-2 3 -9 10t-10 9q0 1 -3 1h-11q-4 0 -4 -1q-2 0 -7.5 -6t-5.5 -13l-3 -11.5t-4.5 -15.5t-4 -14.5t-1.5 -8.5q0 -4 -1 -15.5t-2 -24.5l-2 -25t-1 -17v-15q0 -12 -0.5 -28.5t-0.5 -33.5v-48
q0 -14 0.5 -30.5t0.5 -31.5v-21zM244 6q1 1 6 1q6 0 7 -1q2 0 9.5 -3t9.5 -3h6q1 1 3 6t3 7q2 4 4.5 13.5t2.5 11.5q0 3 -2.5 13t-4.5 12t-9 9.5t-9 9.5q-1 0 -3 0.5t-4 0.5q-1 0 -3.5 -0.5l-2.5 -0.5q-2 -1 -9.5 -8.5t-9.5 -10.5q-1 -1 -3 -6t-3 -7l-0.5 -1t-0.5 -2l1 -3
q1 -5 5.5 -19t6.5 -19z" />
    <glyph glyph-name="quotedbl" unicode="&#x22;" 
d="M142 561v-13q-2 -18 -5 -35t-8 -34l-3.5 -10.5l-5.5 -16.5l-6 -17.5t-4 -12.5q-1 -2 -4 -9.5l-6.5 -15.5t-6 -15.5t-2.5 -9.5t-0.5 -8t-1.5 -12.5t-1.5 -12t-0.5 -6.5q2 0 11.5 0.5t11.5 0.5q1 0 3 2.5t3 3.5q3 3 8 10l10 14l9 13t5 7l13 26q1 3 4 10l6 13.5t5.5 12.5
t2.5 8q1 1 3.5 8.5l6 17.5t6 19t3.5 12q2 4 4.5 13.5t2.5 11.5v7q0 7 0.5 15t0.5 16v14q0 8 -0.5 21.5t-0.5 14.5q-9 24 -20 35t-22 12.5t-20.5 -3.5t-15.5 -13.5t-7.5 -17t3.5 -13.5l6 -6q6 -6 6 -13q0 -2 1 -7.5t2.5 -12.5t2.5 -14t1 -10zM282 523q4 -14 0.5 -27
t-14.5 -37q-1 -3 -4 -10.5t-6 -16.5t-5.5 -17.5t-3.5 -12.5q-1 -2 -4 -9.5l-6.5 -15.5t-6 -15.5t-2.5 -9.5t-0.5 -8t-1.5 -12.5t-1.5 -12t-0.5 -6.5q2 0 11.5 0.5t11.5 0.5q1 0 3 2.5t3 3.5q3 3 8 10l10 14l9 13t5 7l13 26q1 3 4 10l6 13.5t5.5 12.5t2.5 8q1 1 4 6.5t6 13
l6 14.5t4 11q2 4 4.5 13.5t2.5 11.5v7q0 7 0.5 15t0.5 16v14q0 8 -0.5 21.5t-0.5 14.5l-19 37h-13q-20 21 -34 10t-10 -53q2 -4 4 -6.5t2 -6.5q0 -2 1 -7.5t2.5 -12.5t2.5 -14t1 -10v-6z" />
    <glyph glyph-name="numbersign" unicode="#" horiz-adv-x="858" 
d="M311 105q3 0 8 -0.5l5 -0.5q2 -1 7 -8t6 -11q0 -1 1 -6.5t2 -12l2 -12.5t1 -7q2 -7 4 -19t3 -12q1 -2 8.5 -7t10.5 -6l5 -0.5t7 -0.5q3 0 8 0.5l5 0.5q4 1 10 6t6 7v88l9 7q1 0 10 1.5t22 3t19 1.5h19q2 -1 6.5 -3t6.5 -3v-32q0 -2 -2 -6.5l-4.5 -10l-4.5 -10t-2 -5.5v-6
q3 -7 6 -13t7 -6q1 0 8.5 -0.5t12.5 -0.5q3 0 9.5 0.5t7.5 0.5l7.5 10l11.5 15q1 2 3 6.5t3 6.5t3 11.5t3 13.5q1 5 3.5 19t3.5 19q1 1 5.5 3.5t6.5 2.5q3 2 15 4t17 3q2 0 11.5 1t20 2t20 2t11.5 1q4 1 13.5 3t11.5 3q3 2 7.5 6.5t5.5 6.5q0 1 0.5 6.5t0.5 8.5t-0.5 9.5
t-0.5 7.5q0 2 -2.5 6.5t-3.5 5.5q-2 2 -6.5 4t-6.5 3h-25q-2 0 -9.5 -2t-16 -4.5t-16 -4.5t-9.5 -2q-1 0 -8 -0.5t-11 -0.5t-11 0.5t-8 0.5t-3.5 2.5t-2.5 3.5q0 4 -0.5 16t-0.5 16q0 6 0.5 18t0.5 14q0 3 2.5 10.5t3.5 8.5q2 1 14 3l18 3q3 0 16 1t28 2t28 2t16 1q2 1 14 3
t18 4q5 1 14 3t11 3t6.5 3t6.5 3l13 13q0 1 0.5 5.5t0.5 7.5q0 2 -0.5 7l-0.5 5q-1 2 -6 7t-7 6h-8q-37 0 -73 -3.5t-73 -3.5q-4 0 -10.5 0.5l-6.5 0.5q-1 0 -3.5 2t-2.5 4v13q0 1 1.5 9.5l3.5 19t4 20l3 14.5q1 2 3.5 12.5t3.5 12.5q1 6 3.5 18t2.5 14v19q0 5 -5.5 12
t-7.5 7l-6.5 0.5t-9.5 0.5t-9 -0.5l-6 -0.5q-1 -1 -6 -5.5t-7 -7.5q0 -1 -2.5 -6l-3.5 -7q-2 -3 -6.5 -15t-6.5 -16l-3.5 -10t-2.5 -9q-1 -3 -4 -15t-6 -26l-5.5 -26t-3.5 -15q-2 -8 -5 -16.5t-8 -15.5q-3 0 -11 -1t-17 -2l-17.5 -2t-11.5 -1h-6q-3 0 -10 1t-15.5 2t-15.5 2
t-10 1q-1 2 -3.5 6.5t-2.5 6.5v31q0 1 1 8t2 15l2 16t1 12q0 6 3.5 20t3.5 18q0 2 2 9.5l4 15.5l4 15.5t2 9.5q1 1 1 8v18q0 6 -1 6q-1 2 -8 9.5t-11 9.5l-2 0.5t-3 0.5q-2 0 -4.5 -0.5l-2.5 -0.5q-2 0 -6.5 -2.5t-6.5 -3.5q-5 -4 -8 -9t-5 -10q0 -2 -2.5 -9l-3.5 -10
q-8 -29 -14.5 -57t-10.5 -57q0 -2 -1 -9.5t-2.5 -16t-2.5 -16t-1 -9.5q0 -1 -2 -8.5t-4 -10.5q-1 -2 -3 -6.5t-3 -5.5q-7 0 -25 -0.5t-38.5 -1.5t-38.5 -2.5t-25 -2.5q-1 0 -5.5 -0.5t-9.5 -1.5t-9.5 -2t-6.5 -2q-2 0 -7 -2t-11 -4l-11.5 -4t-8.5 -3q-2 0 -6.5 -2.5
t-6.5 -3.5q-3 -2 -8 -6t-11 -8t-11 -7t-8 -4v-26q0 -8 6 -11.5l13 -7.5h6q2 1 6.5 3t6.5 4q1 0 3.5 3l2.5 3q2 1 6.5 3t6.5 3q2 2 9.5 4t9.5 3q1 0 9.5 1.5l19 3.5t20 4l14.5 3q8 2 22 4.5t16 2.5h57q2 -1 7 -3t6 -4q0 -1 2.5 -8t3.5 -11l3.5 -17t2.5 -14q1 -1 1 -6v-14
q0 -5 -1 -6q0 -4 -2.5 -16t-3.5 -15q0 -2 -2.5 -4t-3.5 -3q-3 0 -16 -3t-16 -3q-2 0 -9.5 -2t-15.5 -4.5t-15.5 -4.5t-9.5 -2q-6 0 -28 -4t-40 -6q-12 -1 -15 -2t-18 -8q-7 -4 -12 -6.5t-8 -4.5q-2 -2 -7 -6.5t-5 -6.5q-1 0 -1 -4v-11q0 -3 1 -4q4 -5 12 -11.5t13 -7.5
q2 0 14 2.5t18 4.5q1 0 7.5 2t14 4t14 4t8.5 2q1 0 5 1t9 2l10 2t8 2q1 0 6.5 1t12 2t12 2t6.5 1q2 0 13 3t13 3q1 0 8 0.5t10 0.5zM387 261q0 2 0.5 5l0.5 3q1 2 5.5 7t6.5 5l89 7q2 0 9.5 -2.5t9.5 -4.5q1 0 3 -7.5l3 -11.5v-6q0 -5 -1 -13l-2 -16t-2 -14.5t-1 -7.5
q-1 -2 -3 -6.5t-3 -5.5q-2 -2 -6.5 -4.5t-6.5 -2.5h-89q-1 0 -3 5t-3 8q0 2 -1 8.5t-2 14.5l-2 16t-1 12q0 1 -0.5 5t-0.5 6z" />
    <glyph glyph-name="dollar" unicode="$" horiz-adv-x="664" 
d="M176 190v-32l6 -12t7 -13q2 -2 9.5 -10.5l16 -18l16 -18t9.5 -10.5q1 -2 2.5 -10t3.5 -9q2 -2 12.5 -4t12.5 -2l7 -3.5t6 -3.5q4 -2 18 -6t20 -6q2 -1 12.5 -3.5t12.5 -3.5q4 -1 11 -3t8 -3q7 -1 7 -6v-90q2 0 7 0.5t11 0.5t11.5 0.5t8.5 0.5l6 6l6.5 10t6.5 9
q1 1 3.5 6.5l5.5 12l6 12.5t4 7q1 2 5.5 6.5t6.5 5.5h7q2 -1 7 -5.5t5 -6.5t-6 -12t-6 -13l-0.5 -2t-0.5 -4t0.5 -4t0.5 -3q0 -2 2.5 -9.5t3.5 -9.5l6 -6h45q2 0 6.5 2.5t5.5 3.5q2 2 6.5 9l6.5 10q2 4 6.5 14t6.5 12q0 1 2 6.5l4 11.5l4 11.5t2 7.5q1 0 3 2.5t4 3.5
q1 1 6.5 5.5l12 10l12 10t7.5 6.5q1 1 5.5 10.5t6.5 14.5q2 3 4.5 10t2.5 9v44q0 1 -3 5t-7.5 9t-8.5 10t-7 8l-19 19q-1 1 -4.5 3t-8.5 6q-10 8 -12 10t-7 6l-15 15t-10 11q-1 1 -3 5.5t-3 6.5t-3 12t-3 14q-1 3 -2.5 9t-2.5 12t-1.5 11t-0.5 6v82q1 1 3 3.5t4 2.5
q2 2 12.5 7l12.5 6q8 6 14 10t14 12q11 10 12.5 13.5l3.5 8.5q1 1 1 9v22q0 7 -1 7q0 1 -2.5 6.5t-5.5 11.5l-6 11.5t-5 8.5q-1 2 -5.5 6.5l-6.5 6.5q-2 1 -10 6t-9 7q-4 2 -11 9.5t-8 9.5q-1 1 -3.5 8t-3.5 11v6q0 3 1 15t2.5 26t2.5 26t1 15v13q-1 5 -3.5 14.5t-3.5 10.5
q0 2 -5 4t-7 3h-19q-1 -1 -3.5 -3t-3.5 -4t-3 -9t-3 -10q0 -3 -1.5 -14t-4 -23.5t-4.5 -24t-3 -14.5q0 -2 -2.5 -9.5t-3.5 -9.5q-1 -1 -3 -3.5t-3 -2.5t-7.5 -0.5t-9.5 -0.5t-9 0.5l-6 0.5q-2 1 -6.5 6t-6.5 7q0 1 -1 5.5t-2 10t-2 10t-1 5.5q-1 2 -3 6.5t-3 6.5l-13 13
q-1 0 -4.5 0.5t-5.5 0.5t-5.5 -0.5l-3.5 -0.5q-2 -2 -6.5 -9l-6.5 -10q0 -2 -1 -7.5t-2 -12t-2 -12t-1 -6.5q-1 -3 -3 -10t-3 -9q-2 -5 -7 -7l-50 -25l-10 -6.5t-9 -6.5q-3 -2 -13 -12l-13 -13q-11 -13 -20 -27.5l-18 -29.5q-1 -2 -3 -6.5t-3 -6.5q-2 -3 -6.5 -15t-6.5 -16
q-1 -4 -3.5 -11t-2.5 -8t-0.5 -11t-0.5 -15t0.5 -14.5t0.5 -10.5t2.5 -8.5l3.5 -10.5q2 -2 4 -7t3 -6q2 -2 6.5 -5.5l9.5 -7.5l9 -7.5t6 -4.5q1 -1 6.5 -3.5t13 -5.5l14.5 -6t11 -4q1 -1 9.5 -3.5t18.5 -6t18.5 -6t10.5 -3.5q5 -2 17 -7.5t14 -5.5q2 -1 6.5 -5.5l6.5 -6.5
q1 -2 3.5 -6.5t2.5 -6.5q1 -2 3 -16t4 -22q0 -5 1 -12l2 -14t2 -12.5l1 -5.5v-57q0 -2 -2.5 -4t-3.5 -3h-13q-1 1 -8.5 3t-10.5 4q-4 2 -16 6t-16 6q-2 1 -6.5 3.5t-5.5 3.5q-2 1 -11.5 8t-14.5 11q-3 2 -11 9t-15 11q-5 5 -7 6.5t-5 4.5q-2 2 -9.5 13t-9.5 13t-6.5 7
t-5.5 5q-1 1 -4 1h-11q-4 0 -4 -1q-2 0 -4 -2.5t-3 -3.5zM227 380v19q0 2 2.5 9.5t3.5 9.5l19 38q10 16 20 26l31 31q2 1 6.5 3.5t6.5 2.5l2.5 0.5t3.5 0.5q2 0 4 -0.5l2 -0.5q2 -1 7 -5.5t6 -6.5q0 -5 1 -15.5t2 -22.5l2 -23t1 -15q0 -2 1 -9.5t2.5 -16t2.5 -16t1 -9.5v-12
q0 -8 0.5 -18t0.5 -19v-11q-2 0 -8.5 0.5t-14 1t-14 1t-9.5 0.5q-4 0 -11.5 1.5t-15.5 4l-14.5 4.5t-8.5 3q-3 1 -12.5 10.5t-13.5 14.5q-1 2 -3 9t-3 10zM410 477v18q0 5 0.5 11t0.5 11v9q0 1 2 3.5t4 2.5l4 0.5t6 0.5t5.5 -0.5l3.5 -0.5q1 0 3.5 -2.5t2.5 -3.5
q1 -3 2 -8.5l2 -11.5l2 -11.5t1 -6.5v-197l-7 -6q-5 3 -7.5 8.5t-4.5 10.5q-2 3 -4 13t-3 12q0 2 -1 8.5t-2 15t-2 16t-1 11.5q-1 6 -2 17l-2 22t-1.5 20t-0.5 11v4q0 5 -0.5 11t-0.5 12zM442 211q5 0 13 -2q1 0 3.5 -2.5t2.5 -3.5q1 -2 3 -11.5t4 -14.5q1 -6 3 -16l4 -20
l3.5 -18t1.5 -9t0.5 -7t0.5 -9t-0.5 -9t-0.5 -7q0 -5 -6 -6h-6q-2 1 -4 3l-3 3q-1 2 -3.5 9.5t-2.5 9.5t-1.5 15t-4 29.5t-4.5 32.5t-3 25v8zM512 462q0 2 2 9.5t4 9.5l1 0.5t2 0.5t2 -0.5t2 -0.5t3 -2.5t3 -3.5v-6q-1 -2 -3 -7t-3 -6h-7q-6 1 -6 6z" />
    <glyph glyph-name="percent" unicode="%" horiz-adv-x="769" 
d="M222 25q0 -2 0.5 -7l0.5 -5q0 -3 2.5 -7.5t3.5 -5.5h25q20 3 32 19q1 2 6 9.5t7 9.5q1 1 4.5 5.5l8 10l8 10t4.5 6.5t4.5 7.5l7.5 11.5l7.5 11l5.5 8q1 1 5 7.5l8.5 14t8 14t4.5 8.5t5 8.5t9.5 14.5t10 15.5t6.5 11.5l7.5 12t5.5 7q1 1 2.5 -0.5t2.5 -1.5q0 -2 0.5 -5
t0.5 -5t-1 -7.5t-2 -12t-2 -12t-1 -6.5v-19q0 -2 2.5 -11.5t3.5 -14.5q2 -4 4 -11l2 -7l11.5 -12t14.5 -14q2 -3 10.5 -9t14.5 -12l9 -6t10 -4q1 -1 7.5 -3l14 -4.5t14 -4t8.5 -1.5q2 -1 9.5 -3.5t9.5 -2.5q1 -1 10 -1h30q10 0 11 1q2 0 6.5 0.5t9.5 1.5t9.5 2t5.5 2
q3 1 10.5 4.5l15.5 7t15.5 7.5t9.5 6q3 2 12.5 11.5t12.5 14.5q3 4 10.5 16t8.5 15q1 2 3.5 14t3.5 18v12l-2.5 15t-2.5 18t-1.5 16t-0.5 8q0 2 -5 11.5t-7 14.5q-1 1 -4.5 6t-7.5 11.5t-8 12t-6 8.5q-1 1 -3 3.5t-3 2.5h-38q-2 0 -9.5 3t-9.5 3q-5 2 -17 4t-14 3h-26
q-6 -1 -16 -2.5t-20 -2.5t-18 -1.5t-9 -0.5q-2 0 -11.5 -5l-13.5 -7q-2 -1 -7.5 -4.5l-12 -8l-12 -8.5t-6.5 -5q-1 0 -2 1t-2 1q0 2 -1.5 5.5t-1.5 5.5q1 1 3.5 6l5.5 11t5.5 12t4.5 9q1 1 4 6t6.5 10t6 9.5t2.5 5.5q1 2 6 10.5l10.5 18.5l10 18t5.5 10l10 14.5t7 12.5
l8 14.5t8 13.5l10 18l15.5 24.5t11.5 16.5q0 1 2.5 6t6 10.5l6.5 10t4 5.5t4.5 5.5l8 10l8 10t4.5 5.5q0 1 0.5 7t0.5 9q0 2 -0.5 8t-0.5 8q-6 6 -13 6q-1 1 -7 1h-14q-4 0 -4 -1q-1 0 -5 -4l-9 -9l-10 -10l-8 -8q-2 -2 -9.5 -12t-9.5 -14q-1 -2 -9 -14.5l-18 -29l-20 -32.5
l-16 -25q-1 -1 -3.5 -5.5t-6 -10t-6 -10t-3.5 -5.5q-1 -2 -6 -9.5t-7 -9.5q-1 -2 -6 -11t-10 -19t-9.5 -18t-5.5 -9t-4 -5l-6 -8l-5.5 -7.5t-3.5 -4.5q-2 -3 -7.5 -12l-11.5 -19.5l-11.5 -19.5t-7.5 -13q-1 -1 -3.5 -6.5l-5.5 -12l-6 -12.5t-4 -7q-1 -2 -6.5 -9.5t-6.5 -9.5
q-2 -2 -7.5 -11l-12 -20l-12 -20.5t-6.5 -11.5q-2 -3 -5.5 -9t-7.5 -12l-7.5 -11t-4.5 -6q-2 -3 -12.5 -14.5l-19.5 -21.5q-12 -12 -12 -27q0 -1 -0.5 -6t-0.5 -7zM89 441q0 -6 0.5 -17.5t0.5 -12.5q0 -2 2.5 -6.5t3.5 -6.5l38 -38q1 -1 6 -3.5l11 -5.5l12 -6t9 -4
q2 -1 8.5 -3l13.5 -4t13.5 -3.5t8.5 -1.5q1 0 7 -0.5t8 -0.5q3 0 9.5 0.5t7.5 0.5q3 0 15.5 2.5t16.5 3.5q1 0 5.5 2.5t6.5 3.5q7 4 19 11.5t13 7.5l32 32q0 1 2.5 6l3.5 7q2 3 4 10t2 9l0.5 6t0.5 9t-0.5 9.5l-0.5 6.5q0 2 -2 11.5t-4 14.5l-3.5 10t-2.5 9q-4 5 -10.5 17
t-8.5 14t-11.5 9.5t-14.5 9.5q-1 1 -9 3.5t-10 2.5q-1 1 -6 3.5t-6 3.5q-2 1 -13 3t-13 3q-1 1 -4.5 3.5l-7.5 5.5l-8 6t-5 4q-3 2 -13 7l-12 6h-13q-2 0 -14 -5.5t-17 -7.5l-7 -3.5t-6 -2.5q-2 -2 -7 -6.5t-6 -6.5q-2 -2 -6.5 -10.5t-9.5 -19l-9.5 -20t-5.5 -13.5
q-3 -6 -7.5 -20.5t-5.5 -17.5q0 -1 -0.5 -11.5t-0.5 -15.5zM488 152v38q1 1 3 5.5t4 6.5q3 5 13 14.5l12 11.5q4 2 16 7t16 5q1 1 15 1h41h13q5 0 7.5 -1t4.5 -2t7 -4q5 -2 8 -3.5l5 -2.5l3.5 -3.5t2.5 -3.5q1 -2 3 -12.5t3 -12.5t6.5 -9.5t6.5 -9.5l0.5 -5t0.5 -7
t-0.5 -7.5l-0.5 -5.5q0 -1 -2 -6t-4 -7t-6.5 -9.5t-6.5 -9.5l-6 -6q-16 -12 -33 -19t-37 -7h-7q-5 0 -5 1q-1 0 -8.5 2t-10.5 4q-7 2 -19 7t-13 6q-3 2 -13 11.5t-12 13.5q-2 2 -4 9t-3 10zM153 430v32q1 3 3 12.5t4 12.5q1 2 3.5 7.5t5.5 11.5t5.5 11.5t4.5 7.5q1 2 5.5 7
t6.5 6h19q2 -1 12 -3t13 -4q2 0 6.5 -2.5t6.5 -3.5q3 -2 13 -9.5t12 -9.5t7 -6.5t6 -6.5q2 -2 4 -6.5t2 -5.5q1 -1 1 -12v-31q0 -15 -3.5 -18t-9.5 -9q-3 -2 -9 -5l-12 -6l-11 -5.5t-6 -2.5t-8.5 -0.5t-11.5 -0.5q-5 0 -14 0.5t-10 0.5q-3 0 -10 2.5t-9 3.5q-2 2 -9.5 9
t-9.5 10q-2 2 -4.5 6.5t-2.5 6.5z" />
    <glyph glyph-name="ampersand" unicode="&#x26;" horiz-adv-x="607" 
d="M129 114v-25q0 -6 3 -20t3 -18q1 -2 3 -6.5t4 -6.5q2 -4 9.5 -11t9.5 -8l4.5 -2t10.5 -4l12.5 -4t10.5 -3q5 -1 14 -3.5t11 -2.5h82q1 0 5.5 1t9.5 2l10 2t7 1q1 0 6.5 2l12 4.5l12 4.5t7.5 2q2 1 12.5 3t12.5 3q2 2 9.5 6.5t9.5 6.5q4 0 16 0.5t16 0.5q6 0 18 -0.5
t13 -0.5q2 0 7 -3.5t6 -2.5q2 0 11.5 5l13.5 7q3 2 7.5 6.5t5.5 6.5l0.5 5t0.5 7t-0.5 7.5l-0.5 5.5q0 1 -2.5 3t-3.5 4q-1 0 -6.5 2.5t-6.5 3.5l-13 13v6q1 2 3.5 6.5t3.5 6.5q1 1 4.5 5.5l8 10l8 10t4.5 5.5q1 2 6 9l7 10l11 19t8 13q0 1 1.5 7.5l3.5 14.5l4 16l3 12
q0 1 1 7t2 13l2 14t2 11v6q-1 2 -3 9.5t-4 9.5q-1 2 -3 7t-3 6q-2 1 -6.5 3.5t-6.5 2.5l-5 0.5t-8 0.5q-2 0 -7 -0.5l-5 -0.5q-2 0 -4 -2.5t-2 -3.5q0 -5 -0.5 -16.5t-1.5 -25t-2.5 -25t-2.5 -16.5l-25 -50q-2 -5 -9.5 -17t-9.5 -15q-1 -1 -6 -5.5t-7 -6.5q-3 -3 -8 -7
l-10 -8l-9 -7.5l-4 -3.5q-1 0 -5.5 -0.5t-6.5 -0.5t-7.5 0.5t-6.5 0.5l-12 6t-13 7l-4.5 4.5t-8 7.5t-8 7.5t-4.5 5.5q-2 1 -6.5 7.5l-10 14.5l-10 15t-5.5 8t-3.5 4.5l-5.5 7.5l-6 8t-4 5q-1 2 -3.5 6.5t-2.5 5.5t-0.5 4.5t-0.5 5.5q0 1 0.5 4.5t0.5 4.5q2 3 8 9.5l13 14
t13.5 13.5t9.5 8q1 1 6.5 5t12 8l12 7.5t7.5 4.5l6 6l28.5 33.5t22.5 36.5q2 3 6.5 15.5t6.5 16.5q1 2 3 9.5t3 9.5q2 5 4 14.5t2 10.5q1 1 1 14v41q0 14 -1 15q0 2 -2 12t-4 13q-1 1 -5.5 8.5t-7.5 10.5q0 1 -2.5 3t-3.5 3l-13.5 10t-11.5 9t-7 4.5t-6 2.5h-95
q-1 0 -5.5 -2.5t-6.5 -4.5q-5 -3 -12 -9l-14 -12l-12.5 -11t-6.5 -6q0 -1 -7 -13.5t-12 -23.5q-4 -6 -6 -13q-1 -3 -3 -8l-4 -10.5t-4 -9.5l-2 -4q0 -2 -1.5 -10l-3.5 -18.5l-4 -20.5t-3 -14q-1 -3 -2.5 -10.5t-2.5 -15.5t-1.5 -15t-0.5 -10v-19q0 -22 3.5 -43t3.5 -42v-16
q-3 -5 -9.5 -17.5l-13.5 -26.5l-13.5 -27t-8.5 -18q-1 -3 -4 -10t-6 -15l-5.5 -15l-3.5 -10q-1 -4 -3 -16t-3 -16zM256 361q-1 2 -1 20v44q0 7 0.5 12t0.5 6t2 13t4 19q1 4 3 13.5t3 11.5l3 9t4.5 12t4 11t1.5 6q1 2 6 9l7 10q7 8 14.5 14t16.5 11q2 2 7 4t6 3h38
q1 -1 5.5 -3t6.5 -4q2 -1 4 -3l3 -3q2 -2 4 -7t2 -6t0.5 -10t0.5 -14t-0.5 -15t-0.5 -11q0 -3 -2.5 -15l-3.5 -17q-2 -5 -6.5 -19t-6.5 -19q-3 -4 -12 -13l-19 -19l-19 -19t-13 -12q-2 -2 -9.5 -7t-9.5 -6q-1 -1 -5 -4l-8 -6l-7.5 -5.5t-4.5 -3.5h-7l-6.5 6.5t-5.5 6.5z
M198 95v18q0 6 1 7q0 2 2 11.5t4 14.5l3.5 10t2.5 9q1 3 4 8.5l6 11.5l5.5 11l3.5 7l6.5 6.5t6.5 5.5l1 0.5t2 0.5t2 -0.5l1 -0.5q3 -2 13 -12l13 -13q1 -2 5 -8.5t9.5 -14l10 -14t6.5 -7.5q3 -3 9.5 -10.5l13.5 -15.5l13 -15t9 -10v-13q-6 -6 -12.5 -10.5t-13.5 -8.5
q-2 0 -9 -1t-16 -2l-18 -2t-14 -1h-12q-5 1 -17 3t-15 3q-2 1 -6.5 3t-6.5 4q-1 0 -3 2.5t-3 3.5q-6 6 -6 13q-1 0 -1 6z" />
    <glyph glyph-name="quotesingle" unicode="'" horiz-adv-x="521" 
d="M345 569v-13q-1 -9 -1.5 -13t-1 -6.5t-1.5 -6t-4 -12.5l-3.5 -10.5l-5.5 -16.5l-6 -17.5t-4 -12.5q-1 -2 -4 -9.5l-6.5 -15.5t-6 -15.5t-2.5 -9.5t-0.5 -8t-1.5 -12.5t-1.5 -12t-0.5 -6.5q2 0 11.5 0.5t11.5 0.5q1 0 3 2.5t3 3.5q3 3 8 10l10 14l9 13t5 7l13 26q1 3 4 10
l6 13.5t5.5 12.5t2.5 8l7 10.5t7 15.5q2 4 4.5 13.5t2.5 11.5v7q0 7 0.5 15t0.5 16v14q0 8 -0.5 21.5t-0.5 14.5l-19 37h-13l-50 38q-1 0 -3 0.5t-3 0.5q-2 0 -4.5 -0.5l-2.5 -0.5q-3 -2 -10.5 -9.5t-8.5 -9.5q0 -1 -0.5 -7t-0.5 -9t0.5 -9t0.5 -7l8 -8t11 -10q1 -1 6.5 -3
t6.5 -3l6 -6q6 -6 6 -13q0 -2 1 -7.5t2.5 -12.5t2.5 -14t1 -10z" />
    <glyph glyph-name="parenleft" unicode="(" horiz-adv-x="356" 
d="M75 171v-19q0 -10 1 -27.5l2 -35t2 -30.5t1 -14t1.5 -7.5l3.5 -14.5l4 -16t4 -12q1 -2 3 -9.5t3 -9.5q0 -3 6.5 -13t6.5 -12q2 -4 6.5 -18l6.5 -20q0 -2 2.5 -13t3.5 -13t8.5 -9l10.5 -10q3 -2 12.5 -9l20.5 -15l21.5 -15.5t15.5 -10.5q2 -2 6.5 -4t5.5 -3q4 0 18 -3
t20 -3h19q2 0 6.5 2.5t6.5 3.5l13 13v6q-1 2 -8.5 11.5t-10.5 14.5q-2 1 -4 3.5t-3 2.5h-19q-3 1 -15.5 3t-15.5 3l-51 51q-1 1 -3.5 6l-5.5 11l-6 12t-4 9q-1 2 -2.5 7t-4 11t-4 11.5t-2.5 8.5q0 3 -3 15.5t-3 15.5q0 1 -1.5 6t-3 11.5t-1.5 7.5t-0.5 6t-1.5 11t-2.5 12
t-2.5 9q0 3 -1 9.5l-2 13.5t-2 13t-1 8v7q0 9 1 26l2 34.5t2 31t1 15.5q0 4 1 14t2.5 21.5t2.5 21.5t1 13q0 6 3 20t3 18q0 1 2 6.5l4.5 12l4.5 12t2 7.5t2.5 12.5t3.5 12.5q0 2 1.5 7t4 11t4.5 11.5t3 8.5q1 4 4 12.5l6 16.5l5.5 14.5t3.5 7.5q1 3 4.5 10.5l7.5 15.5
l7.5 15t5.5 10q1 2 8.5 11.5l10.5 13.5q2 2 6.5 7t6.5 6q1 1 5.5 3.5t10 6t10 6t5.5 3.5q5 3 8 8.5t5 10.5v6q-3 4 -10 11t-9 8q-1 0 -7 0.5t-9 0.5t-9 -0.5t-7 -0.5q-2 -1 -11 -8l-14 -11l-32 -32q-1 -1 -4 -6l-6.5 -11t-7.5 -12t-7 -9q-1 -1 -3 -5.5t-3 -6.5q-2 -5 -6 -14
l-8 -18.5t-7.5 -16.5t-4.5 -8q0 -1 -2.5 -8l-5.5 -15l-6 -16t-5 -12q-1 -2 -3 -9.5t-3 -9.5t-3.5 -12.5t-2.5 -12.5q-1 -2 -3.5 -9.5t-3.5 -9.5q-11 -54 -16.5 -107.5t-8.5 -108.5z" />
    <glyph glyph-name="parenright" unicode=")" horiz-adv-x="222" 
d="M47 -152q0 -3 1 -3q2 -4 9.5 -11t9.5 -8h18q1 0 6 2.5t10.5 6l10 6.5t5.5 4q2 1 9.5 3.5t9.5 2.5q2 4 7.5 16l11.5 25l11.5 24.5t7.5 16.5q1 3 5.5 15l6.5 17q2 3 4 10t3 9l3 12l4 16.5t3.5 16t1.5 10.5q1 3 2.5 10.5t2.5 15.5t1.5 15t0.5 9v114q0 3 -1 14.5t-2 24.5
l-2 25t-2 18q0 3 -2 17.5t-4 20.5q-1 3 -3 13t-3 12q-9 26 -22 49t-29 45q-3 5 -10 14.5t-9 11.5l-56 56q-1 1 -7 1h-13q-5 0 -6 -1q-1 0 -3.5 -2t-2.5 -4l-0.5 -5t-0.5 -7t0.5 -6.5t0.5 -6.5q3 -2 10.5 -9t15.5 -15.5l15 -16t9 -10.5q2 -2 6.5 -10t9.5 -18.5l9.5 -20
t6.5 -14.5q1 -3 3.5 -11.5l5.5 -18.5l6 -19.5t4 -13.5q0 -1 1 -7t2 -14l2 -16.5t1 -12.5q1 -6 2.5 -17.5t2.5 -22.5t1.5 -20t0.5 -10v-139q0 -1 -0.5 -7t-1.5 -14t-2.5 -16l-2.5 -13q-2 -15 -5.5 -33.5t-13.5 -33.5l-8.5 -14l-11.5 -18l-11 -16t-7 -9q-1 -2 -5.5 -6.5
l-6.5 -6.5q-3 -2 -12.5 -9.5t-12.5 -9.5q-1 0 -1 -3z" />
    <glyph glyph-name="asterisk" unicode="*" horiz-adv-x="444" 
d="M235 484l57 -57q1 -1 5.5 -3.5t10 -6t10 -6t5.5 -3.5q2 -1 7 -6.5t6 -6.5q2 -1 6.5 -3.5t6.5 -2.5h12q2 1 7 6t6 7v12q-1 3 -3 10t-3 9q-2 4 -9.5 13.5t-9.5 12.5q-2 1 -10 6t-9 6l-5 5l-11.5 14.5l-9.5 12.5q-1 2 -3.5 6.5t-2.5 6.5q0 1 2.5 3.5t3.5 2.5h70q7 0 13 6
q2 3 9.5 13t9.5 13v12l-3 3t-4 3q-2 2 -6.5 4.5t-5.5 2.5q-2 0 -8.5 1t-14 2t-14 2t-8.5 1q-3 1 -12.5 3t-12.5 3q-2 1 -6.5 3.5t-6.5 3.5q1 2 3.5 6.5t3.5 5.5q1 2 4.5 8.5t8 14t8 14t4.5 8.5q1 1 3 8t3 11q2 5 4.5 14.5t2.5 10.5v44q-1 2 -6 7t-7 6q-1 0 -5.5 -2t-7.5 -4
q-1 -1 -3 -3.5t-3 -3.5q-1 -2 -3.5 -8.5t-6 -14t-6 -14t-3.5 -7.5q-1 -2 -6 -9.5t-7 -9.5l-6 -12.5l-6 -12.5q-2 -3 -7.5 -10.5l-11.5 -15.5l-11.5 -15t-7.5 -10q-1 0 -3.5 -0.5l-2.5 -0.5q-2 0 -4 0.5t-3 0.5q-2 2 -12.5 11.5t-12.5 13.5q-2 1 -6.5 7.5l-10 14.5l-10 15
t-5.5 8q-2 2 -6.5 7t-5.5 5q-1 1 -5 1h-11q-3 0 -3 -1q-2 0 -4 -5t-3 -7v-32q1 -2 3.5 -12.5t3.5 -12.5v-7l-3.5 -3.5t-3.5 -2.5q-2 0 -8.5 -1t-14 -2t-14 -2t-7.5 -1q-2 -1 -6.5 -3t-6.5 -4q-1 -1 -3 -5.5t-3 -6.5v-13q1 -2 3 -6.5t3 -5.5q2 -2 6.5 -4t6.5 -3q2 0 11.5 -1
t20 -2t20 -2t11.5 -1q2 -1 9.5 -3t9.5 -3t4 -3.5t3 -3.5q-2 -2 -6.5 -9.5t-6.5 -9.5l-10 -13.5t-9 -11.5l-5 -6l-11.5 -13.5l-13 -15t-8.5 -9.5q-1 -2 -3.5 -6.5t-2.5 -6.5q-1 0 -1 -3v-7q0 -2 1 -3q1 -2 5.5 -7t6.5 -5q1 -1 6 -1h14q5 0 6 1t13 8t18 11q1 0 7 6q3 3 10 11
l15 17.5l15 17.5t10 11h13z" />
    <glyph glyph-name="plus" unicode="+" horiz-adv-x="640" 
d="M326 19q1 -2 3.5 -6.5t3.5 -6.5q1 -1 3 -3.5t3 -2.5h25q2 1 9.5 8t9.5 11q2 2 4 9.5t3 9.5v82q0 2 -1 11.5t-2.5 20t-2.5 20t-1 11.5v26q1 2 6 6.5t7 5.5q2 2 12 4t13 3q7 0 26 1t40 2t40 2t27 1q2 1 7 6t6 7v25q-1 1 -3 6t-4 7l-6 6q-3 2 -10 4t-9 2h-161v146
q0 3 -11.5 12t-17.5 13l-2 0.5t-4 0.5t-4 -0.5l-2 -0.5q-2 -1 -9.5 -8.5t-9.5 -10.5q-2 -2 -4 -6.5t-3 -6.5q0 -1 -1 -7.5t-2 -14.5l-2 -16t-1 -12q0 -5 -1 -15.5t-2 -22.5l-2 -23t-1 -15l-7 -6q-6 -1 -22.5 -3t-34.5 -3.5t-34 -3.5t-22 -3q-2 0 -9 -2.5l-10 -3.5
q-2 -2 -7 -4t-6 -3q-2 -1 -6.5 -5.5l-6.5 -6.5q-1 -2 -3.5 -6.5t-2.5 -6.5v-13q0 -1 2.5 -3t3.5 -3q2 -2 7 -4t6 -2h139q1 0 6 -2.5t7 -4.5q1 0 3 -2.5t3 -3.5q1 -2 3.5 -6.5t2.5 -6.5q1 -2 3.5 -14l3.5 -17q0 -3 1 -10.5t2 -16t2 -15.5t1 -9q0 -6 1 -20t2 -30.5t2 -30.5
t1 -20z" />
    <glyph glyph-name="comma" unicode="," horiz-adv-x="367" 
d="M190 -246q0 -3 0.5 -7.5t0.5 -5.5t2.5 -3.5t3.5 -2.5h26l10 10l15 15l15 15.5l10 10.5q2 2 9.5 14t9.5 17l1.5 5t4 11.5t4.5 12.5l3 9l3 11.5t4.5 14.5t4 12.5t1.5 6.5v100q0 2 -2.5 11.5t-4.5 13.5q0 1 -2 6l-4 10.5t-4 10t-2 5.5v6q0 5 0.5 10t0.5 10q2 4 -2 6.5t-10 3
l-12.5 1t-8.5 1.5q-1 0 -6 3t-7 3l-5 0.5t-8 0.5q-2 0 -7 -0.5l-5 -0.5q-5 0 -6 -6q-6 -10 -13 -18.5t-6 -13.5q1 -2 9 -6.5t10 -5.5l13 -13t12 -13q1 -1 3 -5.5t3 -6.5q2 -4 4.5 -10.5t2.5 -7.5v-70q0 -3 -0.5 -10t-1.5 -15t-2.5 -15.5t-2.5 -10.5q0 -2 -2 -9t-4 -10
l-6.5 -13.5t-6.5 -11.5q-2 -4 -12.5 -17t-18.5 -25q-8 -8 -9.5 -12.5t-3.5 -8.5q0 -1 -0.5 -6t-0.5 -7z" />
    <glyph glyph-name="minus" unicode="-" horiz-adv-x="584" 
d="M111 194v-6q2 -3 6.5 -8t6.5 -5h38q3 0 15 1t26 2t26 2t15 1h32q4 0 18 1.5t31 4t33.5 4.5l24.5 3q1 0 6.5 1t12 2t12 2t7.5 1t9.5 1t16 2.5t16 2.5t9.5 1q3 0 13 2.5t12 3.5l13.5 6.5t11.5 6.5q1 0 3.5 5l3.5 7v7l-19 19q-2 1 -6.5 3.5t-6.5 2.5h-25q-2 0 -7.5 -1
t-12 -2t-12 -2t-6.5 -1q-3 -1 -10.5 -2t-16 -2t-15.5 -2t-9 -1q-16 -2 -47 -4.5t-63 -5.5l-58.5 -5.5t-33.5 -3.5h-38q-7 0 -13 -6q-1 -1 -3.5 -3t-2.5 -3q-2 -3 -6.5 -15z" />
    <glyph glyph-name="period" unicode="." horiz-adv-x="349" 
d="M192 28q0 -1 0.5 -3l0.5 -2q2 -4 9.5 -11t9.5 -8q1 -1 6 2.5t7 3.5h12q2 0 6.5 2.5t6.5 3.5l3.5 3.5t2.5 3.5l0.5 5t0.5 7t-0.5 7t-0.5 6t-2.5 5.5t-3.5 6.5q-3 5 -8.5 8t-10.5 5h-6q-2 -1 -6.5 -3t-6.5 -3l-3.5 -3.5t-2.5 -3.5q-2 -3 -7 -13l-6 -12l-0.5 -2.5t-0.5 -4.5
z" />
    <glyph glyph-name="slash" unicode="/" horiz-adv-x="485" 
d="M72 0h51q2 2 4 3.5t7 12.5q8 13 16 28.5t11 18.5q1 2 6 9.5t6 9.5q1 1 3.5 6.5t2.5 6.5l9.5 16.5t11.5 19.5l7.5 12.5t9.5 14.5q3 6 16 29l28.5 50l28.5 50t16 29q1 2 7.5 11.5l14.5 21.5l16 24l13 19q1 1 6 7.5t10 14l9.5 14t5.5 8.5q1 1 3.5 6.5t2.5 6.5q1 2 7 9.5
l13 16.5l14 17.5l11 13.5l3 2.5t3 3.5l7 13.5l6 11.5v13q-2 6 -8 13t-11 12q-1 1 -6 1h-14q-5 0 -6 -1q-5 0 -9 -3.5l-10 -8.5l-13.5 -14l-11.5 -12q-1 -1 -8 -10.5t-11 -14.5q-3 -5 -10 -14.5l-14 -19.5l-13 -18.5t-7 -10.5q-2 -4 -9.5 -16t-9.5 -16l-6 -11.5t-10 -20
t-10 -20l-6 -11.5t-5.5 -9.5l-10 -16l-10 -16t-5.5 -9.5q-4 -6 -10 -16l-12 -20l-10.5 -18t-5.5 -9q-2 -2 -7 -11t-10 -20l-9.5 -20.5l-5.5 -11.5t-6.5 -10l-12 -18l-12.5 -18.5t-7 -10.5l-17 -27l-18.5 -28.5t-8.5 -13.5v-51z" />
    <glyph glyph-name="zero" unicode="0" horiz-adv-x="447" 
d="M10 240v-37q0 -2 2.5 -11.5t3.5 -14.5q7 -23 19 -42.5t26 -39.5q1 -1 4 -5l7 -9l8 -10t6 -8l6 -6q5 -3 14.5 -10.5t11.5 -8.5q3 -2 10 -6t14 -8.5t13 -7.5t7 -3q1 -1 7.5 -3t14.5 -3.5t16 -3.5t13 -3h12q6 0 15.5 1l18.5 2t15.5 2t7.5 1q3 1 10.5 4.5l15.5 7.5t15 8t10 6
q1 1 8 7.5l15 14.5l15.5 15.5t11.5 12.5q1 1 6 8t7 11l16.5 28.5t15.5 28.5q1 2 3 9.5t3 9.5q0 2 1.5 11.5t4 21t4.5 22l3 15.5v6q0 4 -1 11.5t-2.5 16t-2.5 15t-1 8.5q-1 5 -3 17t-3 14l-3.5 10.5l-5.5 16.5l-6 17.5t-4 12.5q-1 2 -3 6.5t-3 6.5l-8 13l-10 16.5t-9 14.5
t-5 7l-10 10.5l-15 15.5l-15.5 15t-10.5 9q-2 2 -7 5t-11 6l-11.5 5.5t-8.5 2.5q-1 1 -12 1.5t-16 0.5t-16 -0.5t-13 -1.5l-5 -2t-11 -5l-12 -6t-9 -6q-5 -2 -13 -6.5t-16.5 -10l-14.5 -9.5t-7 -5l-7.5 -7.5l-13 -12.5t-14 -14t-9.5 -11q-2 -1 -11.5 -13l-14.5 -18
q-4 -5 -11 -15t-8 -11q-2 -3 -5.5 -10l-7.5 -15l-7.5 -15t-4.5 -10l-6.5 -20t-6.5 -18q0 -2 -1 -8.5l-2 -13.5l-2 -13.5t-1 -9.5zM73 209v44q0 2 2.5 11t4.5 14q0 2 2.5 9.5t3.5 9.5q2 5 6.5 17.5t6.5 14.5l6.5 13.5l5.5 11.5q3 5 10 14.5t9 11.5q1 1 9 7.5l18.5 15l20.5 16
t16 11.5q2 2 9 6.5l10 6.5q2 2 6.5 4t5.5 2t3 0.5t4 0.5q1 0 3.5 -0.5l2.5 -0.5q4 0 6 -6q2 -2 6.5 -12.5t6.5 -12.5q1 -7 6 -7q1 0 8 2.5t11 4.5q1 0 6 2.5l7 3.5q4 2 11 4t8 2t5.5 -5t6.5 -7q11 -14 19 -30.5t13 -33.5q1 -5 3 -13t4.5 -16t4 -14t1.5 -7v-89q0 -1 -2.5 -8
t-4.5 -11q-1 -2 -3 -6.5t-4 -10l-3.5 -10l-1.5 -4.5q-2 -5 -7 -14.5l-6 -11.5l-5 -5.5l-11 -12.5l-12 -14.5t-10 -11.5q-1 -2 -3.5 -4l-2.5 -2q-2 -1 -6.5 -3.5t-6.5 -3.5q-3 -1 -9.5 -3l-12.5 -4l-10.5 -3.5t-5.5 -1.5q-1 -1 -8 -1h-22q-7 0 -8 1q-1 0 -10.5 2t-14.5 4
q-10 3 -18.5 6t-13.5 7l-44 44q-2 2 -6.5 9.5t-6.5 9.5q0 1 -3 3t-3 3q-1 2 -3 9t-3 10q-2 5 -4 17.5t-3 14.5z" />
    <glyph glyph-name="one" unicode="1" horiz-adv-x="457" 
d="M9 16q0 -2 0.5 -5.5t0.5 -4.5q0 -2 2.5 -4t3.5 -2q12 -2 24 -3t23 -1q12 0 24 1t24 3q1 0 8 2t11 4q5 3 9.5 6t8.5 5l16 12.5t11 8.5q1 1 9 6t10 7q3 3 11 10l17 15l17 15t11 10q6 5 19.5 18.5l28.5 29l28.5 29l18.5 18.5q1 0 2 0.5t2 0.5l3 -1q1 -1 3.5 -3t2.5 -3
q1 -3 3.5 -15t2.5 -17q1 -3 2.5 -13t2.5 -21t1.5 -21t0.5 -14v-32q0 -5 6 -6q2 -2 9.5 -6.5t9.5 -6.5t7 -4t6 -2q0 -1 4 -1h11q3 0 4 1q5 5 11 12t8 13v19q0 1 -1 6.5t-2.5 12t-2.5 12t-1 7.5t-1 11.5t-2 20t-2 20t-1 11.5t-1 9.5t-2 16t-2 16t-1 9.5v6q0 5 -0.5 12t-0.5 14
v22q0 8 0.5 15t0.5 12v7q0 3 1 13t2 22t2 22t1 13v133q-2 10 -5.5 17.5t-7.5 14.5q-2 0 -7.5 0.5t-7.5 0.5q-4 0 -10 -0.5l-6 -0.5l-13 -13q-6 -6 -6 -13q0 -2 -1 -9.5t-2.5 -16.5t-2.5 -18t-1 -13v-25q0 -5 -1 -16.5l-2 -23.5t-2 -22.5t-1 -13.5q-1 -4 -3 -16t-3 -16
q0 -2 -5.5 -14t-7.5 -17q-1 -2 -3 -7t-3 -6q-3 -5 -9.5 -14.5l-14 -20l-13.5 -18.5t-8 -10t-7 -8.5t-11 -13.5l-11.5 -13.5t-8.5 -8.5q-5 -6 -16.5 -17.5l-23.5 -23.5l-22 -22l-13 -13q-4 -4 -13 -11.5l-19.5 -15.5l-19.5 -15t-12 -9t-10.5 -6l-15.5 -8.5t-15 -7.5t-9 -3
q-10 -2 -23 -2q-12 0 -22 2q-1 -1 -3.5 -3t-2.5 -4l-0.5 -3.5t-0.5 -5.5z" />
    <glyph glyph-name="two" unicode="2" horiz-adv-x="498" 
d="M156 38h12q3 -1 12 -3.5t20 -6t20 -6t12 -3.5q2 -1 12.5 -3.5t12.5 -2.5q2 -1 9.5 -3.5t9.5 -3.5q1 0 6.5 -1t12.5 -2l14 -2t11 -1h7q2 1 12 3t13 3t8.5 3t11.5 3l18 7t13 6l10 7t9 6l44 44q2 3 6.5 11.5t9.5 19l9.5 19.5t6.5 14v25q-1 1 -3 3.5t-4 2.5l-2 0.5t-4 0.5
q-1 0 -3.5 -0.5l-2.5 -0.5q-7 0 -13 -6l-6 -6q-2 -2 -7 -8.5t-10 -14l-9.5 -14t-5.5 -8.5q-1 -1 -6 -5.5t-7 -6.5t-11.5 -9.5t-13.5 -9.5l-11 -8t-8 -5t-10.5 -2.5t-14.5 -3.5q-7 -2 -19 -4.5t-13 -2.5t-7.5 1t-16 3l-14.5 3q-6 1 -18.5 3.5t-13.5 2.5t-3.5 2.5t-2.5 3.5v13
q0 1 2.5 6l3.5 7q2 3 9.5 15t9.5 16q2 2 7 9.5t6 9.5q8 13 14 28t11 29q1 3 3.5 11.5t5.5 17.5t6 17t4 11q5 16 8 33.5t5 36.5q1 7 2 19l2 24t1.5 21.5t0.5 11.5q0 3 -0.5 12t-1.5 19t-2 19t-2 13q0 2 -2 7.5l-4 11.5l-4 11.5t-3 7.5q0 2 -7.5 11.5l-11.5 14.5q0 1 -2.5 3
t-3.5 3q-5 5 -17.5 14t-14.5 11q-1 1 -5.5 3.5t-6.5 3.5q-5 1 -14.5 4t-16 5.5t-7.5 2.5q-2 1 -14.5 -1.5t-17.5 -4.5q-2 -1 -6.5 -3t-11.5 -4q-12 -4 -14 -6t-10 -9q-8 -8 -9 -10l-5 -10q-5 -11 -14 -28.5t-12 -24.5q-1 -2 -3.5 -9.5t-3.5 -9.5l-3.5 -17.5t-2.5 -14.5v-63
q0 -3 1 -10t2 -15l2 -15.5t1 -10.5q1 -1 3 -8.5t4 -10.5q0 -2 2.5 -6t3.5 -6q2 -3 6.5 -10.5t6.5 -8.5q2 -3 9.5 -10t9.5 -9q1 -1 5.5 -3.5t6.5 -3.5q4 -1 11 -3.5t8 -2.5h14q14 0 31 1t23 1q0 -1 1.5 -7t0.5 -8q-1 -4 -6 -16t-7 -15q-1 -2 -3 -4.5t-4 -6.5l-14 -23.5
t-10 -16.5q-3 -4 -13 -13.5t-13 -11.5q-2 -2 -9.5 -4.5t-9.5 -2.5q-1 0 -10.5 2.5t-14.5 4.5q-2 0 -7.5 2t-12 4t-12 4t-6.5 2t-7.5 -2.5t-16 -5.5t-14.5 -4q-2 -1 -6.5 -3.5t-6.5 -3.5q-2 -2 -6.5 -6t-5.5 -6q-2 -2 -6.5 -12t-6.5 -14v-6q1 -2 3 -9.5t3 -9.5q2 -2 4 -7
t3 -6q2 -2 9 -6t10 -6q2 -2 9.5 -4t9.5 -3h44q2 1 14.5 3t17.5 4q2 0 9.5 3t9.5 3zM143 386v38q0 3 1 9l2 12t2 11t1 6t2.5 6l5.5 11l6 12t5 9q2 2 6.5 9.5t6.5 9.5q4 5 8.5 8t10.5 5q5 2 14.5 4.5t10.5 1.5q1 0 8 -5t11 -7q2 -1 4 -3.5t3 -3.5q2 -2 6 -12t6 -13t4.5 -10.5
t2.5 -8.5v-127q0 -2 -2.5 -11.5t-4.5 -13.5q0 -5 -6 -6q-2 -2 -6.5 -4t-6.5 -3q-4 -1 -11 -3l-14 -4l-12.5 -3.5t-6.5 -1.5q-2 -1 -11.5 1.5t-13.5 4.5q-1 0 -3.5 2.5l-3.5 3.5q-2 5 -4.5 10t-4.5 10q-3 7 -5.5 16.5t-4.5 14.5q-1 5 -3.5 14t-2.5 11z" />
    <glyph glyph-name="three" unicode="3" horiz-adv-x="438" 
d="M156 0h101q1 1 5.5 2t10 1.5t10 1.5t5.5 2q3 1 10.5 4.5l15.5 7.5l15 7.5t10 5.5l5 4l11 9l12 10.5t10 8.5q1 1 3.5 3t2.5 3q2 2 9.5 12t9.5 13q10 14 18 29t8 32v9q-2 5 -6.5 19t-6.5 19q-4 7 -10 14.5t-9 10.5q-6 8 -14 15t-11 10q-3 2 -12.5 9.5t-13.5 9.5
q-1 1 -6.5 4.5t-12.5 7.5l-14 8t-11 6q-1 0 -6 2.5l-7 3.5l-6 6v13q0 1 2.5 6l3.5 7q1 1 4 6t6.5 10t6 9.5t2.5 5.5q21 34 32 76q2 5 4 14.5t2 11.5q1 1 1 9v22q0 6 -1 7q0 2 -8 10.5t-15 13.5q-5 5 -8 7t-15 7l-10.5 3.5t-6.5 2.5h-25q-3 0 -15 -2.5l-17 -3.5
q-10 -5 -18.5 -7t-12.5 -6q-12 -8 -24 -17.5t-21 -20.5q-2 -2 -6.5 -9.5t-5.5 -9.5q-2 -2 -6 -9t-8 -15.5l-7.5 -16t-4.5 -10.5q-1 -2 -3.5 -9.5t-2.5 -9.5v-12q0 -2 2.5 -4t3.5 -3h26l4 4t9 9.5l10 10.5l8 8q1 1 5 6l8 10l8 10t5 6q3 3 7.5 8t9.5 10l9 9t5 4q1 1 13 3t19 4
h12q7 -1 7 -7v-31q0 -2 -2.5 -9.5t-4.5 -9.5l-4 -8l-6 -12.5l-5.5 -11.5t-3.5 -6q-1 -3 -5 -8.5l-8 -11.5l-7.5 -11t-4.5 -7q-2 -2 -9 -9.5t-10 -9.5q-5 -5 -17 -14.5t-14 -11.5q-2 -1 -10 -3t-9 -3q-1 0 -3.5 -2.5l-3.5 -3.5l-3.5 -7t-2.5 -6l-0.5 -4t-0.5 -6t0.5 -5.5
l0.5 -3.5q1 -3 6 -8t7 -5h107q2 0 9.5 -2t9.5 -4q1 0 10.5 -7.5l14.5 -11.5q3 -3 12 -9.5t14 -11.5q5 -4 8.5 -6t3.5 -5q2 -2 7 -12t6 -13v-6q-1 -5 -3 -14t-3 -11q-2 -5 -6.5 -14.5t-6.5 -11.5q-1 -1 -2.5 -3t-3.5 -4l-14 -13.5t-12 -10.5q-2 -2 -11.5 -6.5l-13.5 -6.5
q-3 -2 -9.5 -4t-14 -4l-13.5 -3.5t-7 -1.5h-7q-5 0 -12.5 -0.5t-15.5 -0.5h-23q-6 0 -13.5 0.5t-14.5 0.5h-9q-3 2 -13 6t-18 9q-5 1 -11.5 8l-14.5 15q-2 3 -6 8t-8.5 10t-7.5 9t-3 5q-1 2 -3.5 9.5t-3.5 9.5q-2 3 -6 13t-6 12q-1 2 -3.5 4t-3.5 3h-19q-1 -1 -3.5 -6
t-2.5 -7v-32q0 -1 2.5 -8t3.5 -11q3 -6 7.5 -18t5.5 -13q1 -2 9 -9.5t10 -9.5t9.5 -13t9.5 -13l6 -6q2 -2 9.5 -6.5t9.5 -6.5q5 -2 14.5 -7t11.5 -5q2 -1 16 -3t22 -4z" />
    <glyph glyph-name="four" unicode="4" horiz-adv-x="313" 
d="M82 12q5 0 17.5 -1t26.5 -2t26.5 -2t17.5 -1q2 0 9.5 -2.5t9.5 -3.5q1 0 3.5 -2t2.5 -4q1 -1 3.5 -5.5t3.5 -6.5q1 -4 3.5 -11t2.5 -8q0 -2 1 -10.5t2 -18.5t2 -18.5t1 -9.5q1 -2 3 -6.5t4 -6.5q1 -2 5.5 -6.5l6.5 -6.5q2 -1 6.5 -3.5t6.5 -2.5h13q1 1 5.5 6t6.5 7
q1 1 3.5 5.5t3.5 6.5q2 4 4 11t2 8q0 5 0.5 18t0.5 27t-0.5 26t-0.5 17q2 2 6.5 12t6.5 13v6q-1 2 -6.5 7t-6.5 6q-1 2 -3.5 6.5t-2.5 6.5q-2 3 -4 13t-3 12q0 3 -1 13t-2 22t-2 22t-1 13t-2 10t-4 15t-4 15t-3 10q-1 4 -5.5 13.5t-6.5 12.5t-9.5 10t-9.5 9h-13
q-1 -1 -3.5 -3t-2.5 -4v-95q0 -3 -1 -13t-2 -21.5t-2 -21.5t-2 -13q-1 -2 -5.5 -6.5l-6.5 -6.5h-7q-3 0 -11 1t-17 2t-17 2t-11 1q-2 2 -7 6.5t-6 6.5q-1 1 -3 10.5l-3 14.5q-1 3 -2.5 9t-2.5 12t-1.5 11t-0.5 6v70q0 7 0.5 23t1.5 33t2.5 31.5t2.5 19.5q0 5 1.5 19
t3.5 30.5l4 31.5t3 21q0 3 1.5 11.5t4 18.5t4.5 19.5t3 13.5q0 2 3 9.5t3 9.5v6l-3 14.5t-3 11.5q-2 2 -6.5 7t-6.5 5l-6 0.5t-10 0.5q-3 0 -9 -0.5l-6 -0.5q-2 0 -6.5 -5t-6.5 -7q-1 -2 -3 -6.5t-3 -6.5t-3.5 -9.5t-3.5 -9.5q-1 -3 -2.5 -10t-3.5 -15t-3.5 -15.5
t-2.5 -10.5q-2 -5 -4 -17t-3 -14q-1 -5 -2 -14l-2 -18t-1.5 -16.5t-0.5 -8.5v-285q0 -3 2 -17.5t4 -20.5q2 -5 7 -13t12 -12q3 -2 13 -6.5t13 -6.5z" />
    <glyph glyph-name="five" unicode="5" horiz-adv-x="402" 
d="M18 107q0 -2 0.5 -6.5t0.5 -5.5q1 -3 6 -13t7 -12q2 -3 7.5 -9l11.5 -12l11.5 -11t7.5 -6q1 -1 7 -4.5t14 -7.5l16 -8t13 -6q2 -1 9.5 -3t9.5 -3h95q2 0 14.5 2.5l17.5 3.5q14 4 26.5 10.5t24.5 15.5l13.5 10t11.5 9l9 9l10 10t7 9q2 4 3.5 6.5t2.5 3.5q1 4 4 12.5
t6.5 17.5t6 16.5t2.5 10.5q0 1 0.5 11.5t0.5 15.5t-0.5 16.5t-0.5 13.5q0 1 -1.5 7t-4 14t-4.5 16t-3 13q-1 4 -3.5 11t-2.5 8q-1 2 -6 9.5t-7 9.5q-1 1 -4.5 5t-7.5 9.5l-8 10.5t-5 7q-1 1 -3.5 3t-3.5 3q-3 3 -8 7l-10 8l-9 7.5l-4 3.5q-3 2 -10 5l-14.5 6l-13.5 5.5
t-7 2.5q-4 0 -13.5 0.5t-21.5 0.5q-11 0 -20.5 -0.5t-13.5 -0.5q-2 1 -7 5.5t-6 6.5v26q0 4 1 11l2 14t2 12.5t1 6.5q1 2 6 9l7 10l13 13q2 1 14 3t17 3q3 0 14.5 1l24 2t23.5 2t14 1q6 1 18 3.5t14 3.5q1 0 3.5 5t2.5 7q1 1 1 5v11q0 3 -1 3q-1 2 -5.5 7t-6.5 6
q-3 0 -11.5 1l-17.5 2t-17 2t-11 1q-2 0 -14.5 0.5t-18.5 0.5t-18 -0.5t-13 -0.5q-2 0 -11.5 -2t-13.5 -4q-1 0 -6 -2.5l-7 -3.5l-10 -7t-9 -6l-25 -25l-13 -26q-1 -2 -3.5 -9.5t-2.5 -9.5q-1 -3 -2 -9.5l-2 -13.5t-1.5 -13t-0.5 -8v-8q0 -7 -0.5 -16.5t-0.5 -19.5v-28
q0 -8 0.5 -18t0.5 -19v-11q0 -16 25 -19l4 -0.5t6 -0.5t5.5 0.5l3.5 0.5q1 0 6 2t7 4q1 1 4.5 3.5l7.5 5.5l8 6t5 4q6 6 13 6l7 0.5t11 0.5t11.5 -0.5t8.5 -0.5q4 0 16 -2.5t15 -3.5q1 0 3 -2.5t4 -3.5l9.5 -12.5l11.5 -14.5l5 -8.5t5 -9.5q14 -37 14 -74q0 -4 -0.5 -12
t-0.5 -9q0 -2 -5 -16l-8 -22q-1 -2 -3 -6.5t-3 -5.5q-4 -5 -13.5 -14.5l-11.5 -11.5q-1 0 -6 -2.5t-11 -6t-12 -6.5t-9 -4q-2 -1 -9.5 -3t-9.5 -3q-3 -1 -15 -3t-17 -3h-6q-3 0 -9 1l-12 2t-11 2t-6 1q-3 1 -10 3t-9 3l-17.5 10t-14.5 9q-3 2 -13 13t-18 18l-7 7t-9 3
q-4 2 -6 2.5t-4 1.5h-13q-1 -1 -3.5 -3t-2.5 -4l-0.5 -5t-0.5 -8z" />
    <glyph glyph-name="six" unicode="6" horiz-adv-x="366" 
d="M14 272q0 -24 4 -47.5t9 -47.5q0 -2 2 -10t4 -18t4 -18.5t2 -10.5v-50q0 -5 7 -13t12 -13l11.5 -5.5t20 -10t20 -10t12.5 -5.5q0 -1 2.5 -3.5l3.5 -3.5q2 -1 9.5 -3.5t9.5 -2.5h44q3 0 10 2.5t9 3.5l12 11.5t13 14.5q5 5 10 14l8 14l9 17.5t5 11.5q0 1 0.5 10t0.5 14
t-0.5 15t-0.5 11q-1 4 -6 13.5t-7 12.5q-1 1 -6 4.5l-11 7.5t-12 7.5t-9 5.5q-2 1 -11.5 3.5t-13.5 2.5q-1 0 -8 0.5t-11 0.5t-11 -0.5t-8 -0.5q-2 0 -11.5 -2.5l-13.5 -3.5q-5 -4 -13.5 -7t-18.5 -6q-1 2 -3 9.5t-3 9.5q-2 5 -4 14.5t-2 10.5t-0.5 7t-0.5 13v51
q0 7 0.5 12.5l0.5 5.5q0 1 1.5 8t3.5 15l4 16l3 12q0 2 5.5 14.5t7.5 16.5q11 23 22.5 43t28.5 40q1 1 6 7l11 13l11.5 14t8.5 10q2 1 4 3.5t3 2.5l13.5 10t11.5 9t7 4t6 2q1 1 10 1h26q8 0 8 -1q3 -1 10 -6t13.5 -11l12.5 -11.5t8 -8.5q1 -1 4 -1h1q2 0 2 1q7 4 12 12t7 13
v12l-6 12l-7 14q0 1 -2.5 3t-3.5 3q-5 3 -14.5 10.5t-11.5 8.5q-4 3 -13.5 7.5l-11.5 5.5q-1 0 -10.5 0.5t-14.5 0.5t-14.5 -0.5t-11.5 -0.5t-9.5 -3.5l-14.5 -6.5q-5 -2 -7 -3t-11 -8l-11.5 -9t-10.5 -9q-7 -5 -17 -13.5t-13 -11.5q-2 -1 -4 -3l-3 -3l-15 -20l-18 -24
l-16 -21.5t-8 -10.5q-2 -3 -7.5 -13.5l-11.5 -22.5l-11.5 -23.5t-7.5 -16.5l-12 -44q-5 -19 -9 -37.5t-4 -38.5zM128 101q0 2 7.5 9t11.5 10q2 2 6.5 4t6.5 3h31q6 -2 6 -7q1 0 1 -6v-14q0 -5 -1 -5q0 -2 -5 -9.5t-7 -9.5q-6 -6 -13 -6q-1 -1 -6 -1h-15q-4 0 -4 1
q-2 0 -6.5 5t-6.5 7q-2 3 -4.5 10.5t-1.5 8.5z" />
    <glyph glyph-name="seven" unicode="7" horiz-adv-x="413" 
d="M219 222v-197q0 -2 5 -9t8 -10q1 -1 5.5 -3.5t6.5 -2.5h26q3 2 10 9t9 10q0 8 -0.5 29t-0.5 44t0.5 44t0.5 29q0 6 1.5 18.5t3 21.5t1.5 10l6 7l89 12q2 1 7 6t6 7q0 1 0.5 5.5t0.5 7.5q0 2 -0.5 7l-0.5 5q-4 7 -12.5 13t-13.5 6h-38q-2 1 -12 3t-13 4q-2 0 -4 2.5
t-2 3.5l-0.5 4.5t-0.5 6.5t0.5 7.5t0.5 6.5q0 8 1 21l2 26.5t2 23.5t1 12q0 3 3 14l6.5 23.5l6.5 24t3 14.5q0 1 0.5 14.5t0.5 20.5q0 4 -0.5 17t-0.5 17q-2 6 -5 10.5t-8 8.5l-11 8t-8 5q-2 0 -8.5 -1t-14 -2t-14 -2t-7.5 -1q-3 -1 -10.5 -2t-16 -2t-15.5 -2t-9 -1
t-11.5 -1t-20 -2t-20 -2t-11.5 -1t-9.5 -3t-9.5 -3q-3 -1 -12 -2t-19.5 -2t-19.5 -2t-12 -1q-5 0 -7 -6v-19q2 -6 8 -13t11 -12q1 -1 7 -1h22q8 0 9 1q7 0 13 6h101q6 6 13 6t13 -6v-51q0 -1 -1 -6.5t-2.5 -12t-2.5 -12.5t-1 -7q0 -2 -1 -11.5t-2 -20t-2 -20t-1 -11.5
q0 -4 -1 -11l-2 -14t-2 -12.5t-1 -6.5q-1 -2 -3 -6.5t-4 -6.5q0 -1 -2.5 -3.5t-3.5 -2.5q-3 -1 -11 -3t-17.5 -3.5t-17.5 -3.5t-11 -3q-1 0 -6 -1t-11 -2l-12 -2t-9 -1q-2 0 -8.5 -1t-14 -2.5t-14 -2.5t-7.5 -1q-4 0 -13 -1.5t-19 -3.5t-19 -4t-13 -3q-1 -1 -3.5 -3t-2.5 -4
l-0.5 -2.5t-0.5 -3.5q0 -2 0.5 -4l0.5 -2q4 -7 13.5 -13t18.5 -6h177z" />
    <glyph glyph-name="eight" unicode="8" horiz-adv-x="346" 
d="M13 115q0 -5 0.5 -15.5l0.5 -10.5q1 -3 5.5 -13t7.5 -13q2 -3 7.5 -9l11.5 -12l11.5 -11t7.5 -6q3 -2 11.5 -6t17.5 -7.5t17 -7t11 -4.5h69q1 0 6.5 1.5l13 3.5l14.5 4t11 4q5 2 10.5 4.5t8.5 7.5q3 4 8 12t9.5 16l8.5 15t5 8q1 3 3 8.5l4 11.5t4 11t2 7q0 1 0.5 8.5
t0.5 12.5t-0.5 13.5t-0.5 9.5q0 2 -2.5 11.5t-3.5 14.5q-2 5 -4.5 14.5t-5.5 16.5l-4.5 11t-4.5 8q-3 5 -10 14.5t-9 11.5t-13 9.5t-13 9.5q-4 3 -11 10t-8 9l2.5 5t4.5 7t9 12l10 14q1 1 6 6.5t10 12l9.5 12t5.5 7.5q1 1 5 6.5l8 11.5l7.5 11.5l5.5 8.5t6 10l8 14l7 12.5
t4 7.5q1 3 3 8.5l4 11.5t4 11t2 7v32l-3 6t-4 6q-2 3 -6.5 8t-10 10t-9.5 9l-5 5q-2 1 -6.5 2.5l-10 3.5l-10 3.5t-5.5 3.5q-2 1 -6.5 3t-6.5 3h-120q-1 0 -10.5 -5t-14.5 -8q-4 -2 -11 -6.5t-8 -5.5q-4 -4 -13.5 -16l-12.5 -16q-2 -3 -4.5 -8.5t-5.5 -11.5l-5.5 -11
l-3.5 -7q0 -2 -1 -8t-2 -13l-2 -13.5t-1 -9.5v-70q0 -1 2.5 -8t3.5 -11q8 -18 21 -33t24 -30q2 -2 4 -7t2 -6t-2 -5.5t-4 -7.5q-1 -2 -6 -9l-7 -10q-1 -2 -5.5 -8l-10 -13.5l-10.5 -14t-6 -8.5t-4 -7.5l-6 -11.5t-5.5 -11.5t-3.5 -7.5q-1 -3 -3.5 -13t-2.5 -12t-0.5 -13.5
t-0.5 -17.5zM77 95v32q0 1 1 6l2 10t2 9.5t2 5.5q0 2 5.5 9.5t6.5 9.5q1 1 3.5 6t5.5 10l6 10t4 6q1 3 7 9.5t14 13.5l15 13t9 8q3 -1 13 -5.5t12 -6.5l13 -12.5t12 -13.5q2 -2 6.5 -11.5l6.5 -13.5q2 -3 4 -13t2 -12q0 -1 0.5 -8.5t0.5 -11.5q0 -3 -0.5 -10.5l-0.5 -7.5
q0 -2 -2 -9t-4 -10q-1 -2 -3 -6.5t-3 -6.5q-2 -4 -7 -11t-6 -8q-3 -2 -13 -7l-12 -6q-2 0 -14 -0.5t-18 -0.5t-18 0.5t-14 0.5l-12 6t-13 7q-2 2 -7 9.5t-6 9.5zM202 533q5 0 12.5 -0.5t8.5 -0.5q2 0 11.5 -5t13.5 -8q2 -1 4 -3l3 -3v-25q-1 -2 -3 -9t-4 -10q-1 -2 -3 -6.5
t-3 -6.5q-6 -11 -19.5 -30.5l-23.5 -33.5q-6 -10 -8 -12t-9 -10q-4 -4 -6.5 -6t-3.5 -3q-2 -2 -6.5 -4t-5.5 -2q-1 -1 -8 -1h-19q-5 0 -5 1q-2 1 -9.5 8t-9.5 11q-3 4 -8 13.5t-5 11.5v76q0 5 7 13.5t12 18.5l7 7t6 5q1 1 5.5 2t10 2l10.5 2t6 1q2 0 9.5 3t9.5 3
q1 0 9.5 0.5t13.5 0.5z" />
    <glyph glyph-name="nine" unicode="9" horiz-adv-x="424" 
d="M17 154q0 -5 0.5 -20t1.5 -20q0 -1 2.5 -8.5l3.5 -10.5q2 -2 4 -7t3 -6l12 -12.5l17 -18t17 -17t11 -9.5l12.5 -6l12.5 -6l3.5 -3.5t2.5 -3.5l10 -3.5t9 -2.5h89q2 0 9 2.5l10 3.5l38 19l10 6.5t9 6.5l44 44q1 1 6 10.5l11 21.5l12 24.5t9 19.5q1 1 3 8.5t4 10.5l3 11.5
l4 14.5l3.5 12.5t1.5 6.5q1 3 2 10t2 15t2 15t1 10v102q0 3 -0.5 13t-1.5 22t-2.5 23.5t-2.5 17.5q0 1 -1 6.5t-2 12t-2 12t-1 7.5q0 3 -1 12.5t-2 20.5l-2 21t-1 15v19q-1 4 -3 14t-4 12q-1 2 -5.5 9.5t-6.5 9.5l-13 13t-13 12q-1 1 -5.5 3t-6.5 3t-11.5 3t-14.5 4l-17 3.5
t-14 2.5h-13q-4 -1 -11 -3l-14 -4l-12.5 -3.5t-6.5 -2.5q-1 0 -5 -3.5l-9 -8t-10 -8.5t-8 -5l-51 -51q-1 -2 -5.5 -9l-6.5 -10q-3 -4 -7 -12l-8 -16l-7 -14.5t-4 -7.5q0 -4 -3 -18t-3 -20v-45q0 -3 2.5 -15t3.5 -16l6.5 -17t6.5 -15q1 -1 8 -10.5t11 -14.5l14.5 -18
t10.5 -14q4 -5 14 -14t12 -11t12.5 -7l12.5 -6q1 0 3.5 -3l2.5 -3q3 -2 10 -4.5t9 -2.5h70q2 1 12.5 3.5t12.5 3.5q1 0 2.5 -0.5t2.5 -0.5q0 -3 1 -12.5t1 -12.5q0 -2 -1.5 -9t-4 -15t-4.5 -15.5t-3 -10.5l-6.5 -17t-6.5 -15q-1 -3 -5 -8.5l-8 -11.5l-7.5 -11t-4.5 -7
q-3 -3 -8.5 -9l-11.5 -12l-11 -11t-7 -6q-1 0 -13 -5l-19 -8l-10.5 -3.5t-8.5 -2.5h-19q-1 0 -5.5 1t-9.5 2t-9.5 2t-6.5 1q-2 1 -9.5 3.5t-9.5 3.5q-5 2 -15 6.5t-11 5.5q-2 1 -7.5 7.5l-13 15l-14 16.5t-9.5 12q-1 1 -3 6.5t-3 6.5q-2 1 -6.5 3.5t-6.5 2.5q-2 1 -10.5 1.5
t-10.5 0.5zM285 602q4 -1 13.5 -6t11.5 -7q0 -4 0.5 -13t1.5 -19t2.5 -19t2.5 -12q0 -2 3 -13t3 -13v-5q0 -5 0.5 -11.5t0.5 -13.5v-21q0 -7 -0.5 -13.5t-0.5 -11.5v-6q0 -1 -1 -6t-2 -11l-2 -12t-1 -9q-2 -5 -4 -14.5t-3 -10.5q-1 -2 -5.5 -9.5t-6.5 -9.5t-6.5 -7t-6.5 -6
q-6 -6 -13 -6l-5 -0.5t-8 -0.5q-2 0 -6.5 0.5t-5.5 0.5q-5 1 -17 5.5t-15 6.5l-38 38l-11.5 14.5t-7.5 11.5v95l2.5 5t4.5 7q2 5 6 12.5l8 14.5t7.5 12.5l3.5 5.5l5.5 5.5l9.5 9.5t10 9.5t7 6.5q3 3 15.5 10t15.5 9q5 2 17 4.5t15 2.5z" />
    <glyph glyph-name="colon" unicode=":" horiz-adv-x="369" 
d="M201 25q0 -2 2 -6.5t4 -5.5q3 -2 13 -7t13 -6h25q2 0 6.5 2.5t6.5 3.5q1 2 3 6.5t3 6.5v13q0 6 -5.5 11.5l-7.5 7.5q-2 1 -7.5 3.5l-11.5 5.5l-11.5 6t-7.5 4l-6.5 -6.5t-5.5 -6.5q-1 -1 -3.5 -6l-3.5 -7q-2 -3 -4 -10.5t-2 -8.5zM244 277q0 -4 0.5 -10.5l0.5 -6.5
q2 -3 9 -10t10 -9q1 -1 5 -1h15q5 0 6 1q5 5 11 12t8 13v19q-1 1 -3 6t-4 7q-1 1 -3 3.5t-3 2.5q-2 1 -9.5 3.5t-9.5 2.5l-2.5 0.5t-3.5 0.5q-2 0 -4 -0.5t-3 -0.5t-5.5 -2t-6.5 -4q-2 -1 -4.5 -3.5l-2.5 -2.5q0 -1 -0.5 -9t-0.5 -12z" />
    <glyph glyph-name="semicolon" unicode=";" horiz-adv-x="356" 
d="M256 -74v-13q-2 -18 -5 -35t-8 -34l-3.5 -10.5l-5.5 -16.5l-6 -17.5t-4 -12.5q-1 -2 -4 -9.5l-6.5 -15.5t-6 -15.5t-2.5 -9.5t-0.5 -8t-1.5 -12.5t-1.5 -12t-0.5 -6.5q2 0 11.5 0.5t11.5 0.5q1 0 3 2.5t3 3.5q3 3 8 10l10 14l9 13t5 7l13 26q1 3 4 10l6 13.5t5.5 12.5
t2.5 8q1 1 3.5 9l5.5 17.5t6 18t4 12.5q2 4 4.5 13.5t2.5 11.5v7q0 7 0.5 15t0.5 16v14q0 8 -0.5 21.5t-0.5 14.5l-19 37h-13l-50 38q-1 0 -3 0.5t-3 0.5q-2 0 -4.5 -0.5l-2.5 -0.5q-3 -2 -10.5 -9.5t-8.5 -9.5q0 -1 -0.5 -7t-0.5 -9t0.5 -9t0.5 -7l8 -8t11 -10q1 -1 6.5 -3
t6.5 -3l6 -6q6 -6 6 -13q0 -2 1 -7.5t2.5 -12.5t2.5 -14t1 -10zM179 233q0 -1 0.5 -3l0.5 -2q2 -4 9.5 -11t9.5 -8q1 -1 6 2.5t7 3.5h12q2 0 6.5 2.5t6.5 3.5l3.5 3.5t2.5 3.5l0.5 5t0.5 7t-0.5 7t-0.5 6t-2.5 5.5t-3.5 6.5q-3 5 -8.5 8t-10.5 5h-6q-2 -1 -6.5 -3t-6.5 -3
l-3.5 -3.5t-2.5 -3.5q-2 -3 -7 -13l-6 -12l-0.5 -2.5t-0.5 -4.5z" />
    <glyph glyph-name="less" unicode="&#x3c;" horiz-adv-x="462" 
d="M265 -5l35 37v4q0 2 -5 14q-4 14 -10 30.5t-5 21.5q-2 2 -3.5 11t-3.5 11q1 1 -1.5 6.5t-3.5 6.5q-1 5 -5 18t-6 21q-2 6 -4.5 14.5t-4.5 16.5q-4 6 -11.5 25t-13.5 40t-9 40t3 25q1 1 7.5 11l14.5 22l16 24l13 19q1 1 6 7.5t10 14l9.5 14t5.5 8.5q1 1 3.5 6.5t2.5 6.5
q1 2 7 9.5l13 16.5l14 17.5l11 13.5l3 2.5t3 3.5l7 13.5l6 11.5v13q-2 6 -8 13t-11 12q-1 1 -6 1h-14q-5 0 -6 -1q-5 0 -9 -3.5l-10 -8.5l-13.5 -14l-11.5 -12q-1 -1 -8 -10.5t-11 -14.5q-3 -5 -10 -14.5l-14 -19.5l-13 -18.5t-7 -10.5q-2 -4 -9.5 -16t-9.5 -16l-6 -11.5
t-10 -20t-10 -20l-6 -11.5t-5 -11.5t-7.5 -20.5t-6 -20.5t-1.5 -11.5q13 -56 26.5 -103t34.5 -100q2 -9 5.5 -22.5t6.5 -26.5t5.5 -22l2.5 -9z" />
    <glyph glyph-name="equal" unicode="=" horiz-adv-x="757" 
d="M222 25q12 0 43.5 -0.5t67 -1.5t67 -2t44.5 -2q2 0 8.5 -1l13.5 -2t13 -2t9 -1q1 0 6.5 -2l12 -4.5l12 -4.5t7.5 -2h12q6 1 18 3.5t14 2.5q2 2 7 6.5t6 6.5v32q0 1 -2.5 5.5t-4.5 6.5q-1 2 -3 4l-3 3q-2 1 -12 3t-13 3q-2 0 -10.5 1t-18.5 2t-18.5 2t-9.5 1q-5 1 -19 3
t-19 4h-228q-1 0 -5.5 -5t-6.5 -8q-2 -2 -4 -6.5t-3 -6.5v-19q1 -2 3 -6.5t4 -5.5q1 -2 5.5 -4t6.5 -3zM197 209h145q2 0 9.5 -1t16 -2.5t16 -2.5t9.5 -1q3 0 15 -1t26 -2t26 -2t15 -1q2 0 8.5 -2l14 -4.5l13.5 -4.5t8 -2h38q2 1 7 6t6 7l0.5 3.5t0.5 5.5t-0.5 5.5t-0.5 4.5
q0 2 -2.5 6.5t-3.5 6.5l-6.5 6.5t-6.5 5.5q-2 2 -6.5 4t-6.5 3q-1 0 -9 1.5l-18 3.5l-20 4t-16 3q-6 2 -20.5 4t-17.5 3q-5 0 -15.5 1l-22 2t-20.5 2t-11 1h-133q-2 -1 -9.5 -3t-9.5 -3q-3 -2 -13 -6.5t-12 -6.5q-1 -1 -3.5 -3t-3.5 -3q-1 -2 -3 -6.5t-3 -6.5v-6
q2 -3 9.5 -10t9.5 -9z" />
    <glyph glyph-name="greater" unicode="&#x3e;" 
d="M201 581l-20 -49q0 -2 1 -4t10 -11q8 -12 19 -25.5t12 -18.5q2 -1 7 -8.5t7 -9.5q-1 -1 3.5 -5.5t5.5 -4.5q3 -5 10.5 -15.5t12.5 -18.5q5 -5 9.5 -11.5t9.5 -14.5q6 -5 15 -21t16 -34t10 -34.5t-2 -23.5q-2 -2 -7 -12l-12 -23t-13.5 -26.5t-10.5 -20.5q-2 -2 -9.5 -15
t-12.5 -23l-6.5 -11.5t-2.5 -9.5q-1 -3 -6 -11t-11.5 -17.5l-13 -19t-9.5 -14.5l-2.5 -3t-2.5 -4q-2 -4 -5.5 -14t-4.5 -12l1 -7v-6q2 -6 9.5 -12.5l12.5 -10.5q1 -2 6 0h6l8 1l4.5 1.5l1.5 0.5q5 1 8.5 5t9.5 9l12 15l10 13q0 1 6 11t10 16q2 5 8 15.5l12 21l11 19.5t6 11
q2 5 8 17l8 16q1 3 4.5 12.5l8 21l8 21t4.5 12.5q1 2 4 11.5t5.5 21t4 21.5t0.5 12q-18 54 -41 99.5t-60 87.5l-18.5 27.5l-19 29t-8.5 13.5z" />
    <glyph glyph-name="question" unicode="?" horiz-adv-x="438" 
d="M239 234v-7l3.5 -10.5t2.5 -8.5q1 -1 6 -3t7 -3h13q1 1 5.5 3t6.5 3l7 7q3 6 12 22l19.5 34l19.5 34.5t12 22.5l19 38q1 3 4 10.5l6 15.5l5.5 15l3.5 10t3 10t4 15t3.5 15t1.5 10q1 3 2.5 10.5t2.5 15.5t1.5 15t0.5 10v82q0 2 -2.5 14.5t-4.5 17.5q-5 18 -12 31
q-2 4 -7 11t-6 8q-2 3 -6.5 8t-10 10t-9.5 9l-5 5q-3 2 -13 6.5t-13 5.5q-3 0 -15 1t-20 1h-20q-10 0 -20.5 -1t-12.5 -1q-1 0 -7.5 -3t-15 -6.5t-16.5 -8t-12 -7.5q-1 0 -3 -2.5t-3 -3.5l-7 -10t-6 -9t-3.5 -9.5t-2.5 -9.5q0 -1 -0.5 -12t-0.5 -16q0 -6 0.5 -17t0.5 -12
t2.5 -8.5l3.5 -10.5l6.5 -13.5t6.5 -11.5t6.5 -7t6.5 -6l3.5 -0.5t5.5 -0.5t5.5 0.5t4.5 0.5q2 2 7 6.5t5 6.5v88q0 2 5 6.5t8 6.5l13.5 7l11.5 6q1 0 8.5 0.5t11.5 0.5t10.5 -0.5t7.5 -0.5q1 -1 10.5 -8t14.5 -11l7 -7l7 -13.5t5 -11.5q0 -1 0.5 -8t1.5 -16t2.5 -18
l2.5 -15v-19q0 -5 -1 -14t-2.5 -19t-2.5 -18.5t-1 -11.5q0 -2 -2.5 -11.5l-3.5 -13.5q-2 -3 -6 -14t-8 -23.5t-7 -23.5t-4 -15q-2 -3 -6.5 -15l-6.5 -17q-1 -2 -3 -6.5t-3 -5.5q-2 -2 -7 -9.5t-6 -9.5l-6.5 -13l-9.5 -19l-9.5 -19t-6.5 -12q-1 -2 -3 -9.5t-3 -9.5zM251 40
q0 -2 0.5 -5l0.5 -3q2 -4 9 -14t10 -12q1 0 8 -2.5t11 -3.5h6q2 2 9.5 9t9.5 10q6 6 6 13l0.5 5.5t0.5 7.5t-0.5 7l-0.5 5q-5 5 -12 11t-13 8h-6q-5 -1 -14.5 -3.5t-11.5 -3.5l-2.5 -2t-3.5 -4q-2 -2 -4 -6.5t-2 -5.5t-0.5 -5t-0.5 -6z" />
    <glyph glyph-name="at" unicode="@" horiz-adv-x="1059" 
d="M97 92q0 -8 0.5 -23t0.5 -17q0 -1 2.5 -9l5.5 -18l6 -20t5 -15q9 -28 23.5 -53t33.5 -48l13.5 -16.5l20.5 -24.5l21 -24.5t15 -16.5q10 -15 31 -29.5t44.5 -26.5t46 -22t36.5 -17q3 -1 14 -4t23.5 -6t24 -5.5t14.5 -3.5q1 -1 6 -3.5t6 -3.5q4 -1 11.5 -2l15.5 -2t15 -1.5
t9 -0.5q3 0 17.5 2t20.5 4q5 5 23 10q11 5 27.5 9.5t19.5 6.5q2 2 9.5 9t9.5 10q1 2 2.5 11t1.5 11q-3 0 -11 -0.5l-16.5 -1l-16.5 -1t-11 -0.5q-2 0 -7.5 -2l-12 -4.5l-12 -4.5t-6.5 -2q-2 0 -15 -0.5t-20 -0.5t-20 0.5t-15 0.5t-10.5 2.5l-19.5 5.5l-22 6t-17 5
q-12 4 -30.5 13t-38.5 20t-38.5 22.5t-31.5 20.5q-5 4 -17 15.5l-25.5 24.5l-25 25t-15.5 17q-1 2 -5.5 9l-6.5 10l-8 14l-10 18l-9 16t-5 9q-2 3 -6.5 17l-6.5 20l-3.5 17t-2.5 15q0 1 -0.5 14.5t-0.5 20.5t0.5 20t0.5 14q0 5 2.5 17t3.5 15l10 20.5t15.5 30t15.5 30
l10 20.5l3 3t3 4q1 1 3.5 6t3.5 6q1 2 5.5 9.5t6.5 9.5q2 3 6 8l8 10l7.5 9t4.5 5l50 50q1 1 5 4.5l9 7.5l10 8t8 6q2 1 9.5 6t9.5 6q3 3 4.5 5.5t7.5 4.5q6 4 15 9t11 7q2 1 9.5 6t9.5 6q2 2 12.5 7l12.5 6q3 1 13 6.5l22 12.5l22 12.5t13 6.5q1 1 7.5 2.5t14 4t14 4
t8.5 2.5q1 0 6 3t7 3l12 3t16 4.5t14.5 4t7.5 1.5h102q2 0 14 -3t17 -4q2 0 6.5 -2.5t6.5 -3.5q1 0 3.5 -3l2.5 -3q1 -2 7.5 -7.5l14 -12l14 -12t8.5 -6.5l3.5 -4l7.5 -9l8 -10.5t7 -8.5q9 -11 16 -21.5l15 -22.5q3 -3 6 -8l6 -10.5t5 -9.5l2 -4l6 -15l8 -21l7.5 -20.5
t4.5 -12.5q0 -2 1 -9t2 -15l2 -15.5t1 -11.5q0 -2 0.5 -16.5t0.5 -22.5q0 -7 -0.5 -21.5t-0.5 -15.5t-1 -6t-2 -11l-2 -12t-1 -9q-2 -5 -4 -14.5t-3 -10.5l-6.5 -10t-9 -15.5t-9 -15.5l-6.5 -10l-32 -32h-57q-2 1 -9.5 3t-9.5 4t-12 9t-13 10t-8 7.5l-10.5 9.5t-9.5 9t-4 5
t-0.5 5.5t-0.5 6.5t0.5 7.5t0.5 6.5q0 3 5.5 18.5l9.5 27.5q3 9 4 11t3 11q1 5 2 8.5t2 5.5q1 6 3.5 18t2.5 14v101q0 2 -2.5 9.5t-3.5 9.5q-1 1 -5 6.5l-9 12.5l-10 14l-8 11q-1 2 -3.5 4l-2.5 2q-2 1 -7.5 3.5t-12 6t-12 6t-6.5 3.5q-2 2 -9.5 7t-9.5 6q-4 0 -18 3t-20 3
q-1 1 -12 1h-29q-9 0 -10 -1q-2 0 -9 -2t-10 -4t-13 -6.5t-12 -6.5q-4 -2 -11 -6.5t-8 -5.5q-2 -2 -6.5 -7.5l-10 -12l-10 -12t-5.5 -6.5l-19 -19q-7 -16 -13 -19q0 -2 -5 -13l-10 -21q-3 -8 -5 -15.5t-5 -13.5q-2 -5 -4 -17.5t-2 -14.5q0 -1 -0.5 -12t-0.5 -16
q0 -6 0.5 -17t0.5 -12q0 -3 1 -8.5l2 -11.5l2 -11.5t1 -6.5q1 -2 6.5 -9.5t6.5 -9.5q1 -1 3.5 -6t5.5 -10l6 -10t4 -6q2 -2 9 -11.5l10 -13.5q0 -1 2.5 -3t3.5 -3q3 -3 7.5 -7t10 -7.5t9.5 -7t5 -4.5q2 0 14 -7.5t17 -11.5q3 -1 8 -3.5l5 -2.5h76q1 0 6 2.5l7 3.5q1 1 4.5 4
l7.5 6.5t7.5 6t5.5 2.5q2 2 6.5 4t6.5 3h12q2 -1 9 -6l10 -7q2 -1 6.5 -6.5t6.5 -6.5q1 -1 6 -4t11 -7t12 -7.5t9 -5.5q2 -1 6.5 -3.5t6.5 -2.5q4 -2 11 -4l14 -4l12.5 -3.5t6.5 -1.5t12.5 -0.5t16.5 -0.5t16 0.5t12 0.5q2 0 11.5 5t13.5 8q2 1 14 10t18 14l6 6l13.5 17
t11.5 15l7 10t6 9q0 1 1.5 6t4 11t4.5 12l3 9q0 2 2.5 12.5t3.5 12.5t3.5 9.5t2.5 9.5q2 5 4.5 14.5t2.5 11.5v69q-1 6 -4 20l-6 29l-5.5 28l-3.5 18q-1 2 -5 11l-9 20l-10 22t-8 17q0 1 -5 8l-8 11l-7 10l-10 14l-9 12.5t-5 7.5q-2 3 -8 11l-13.5 17.5l-14 17.5t-9.5 11
q-1 1 -3 3.5t-3 2.5q-2 2 -9.5 7t-9.5 6l-6 6q-4 3 -10.5 8.5l-12.5 11t-10.5 9l-4.5 3.5q-2 1 -9.5 3.5l-16.5 5.5l-18 6t-13 4q-2 0 -8 1t-13 2l-13.5 2t-9.5 1q-1 0 -7 0.5t-9 0.5t-9 -0.5t-7 -0.5q-6 0 -20 -3t-18 -3q-2 0 -7.5 -2l-12 -4.5l-12 -4.5t-6.5 -2
q-2 0 -12.5 -2.5t-12.5 -3.5q1 1 -6 -2l-16.5 -7l-19.5 -8.5t-15 -7.5q-2 -1 -7.5 -4l-11.5 -6.5t-11.5 -6t-7.5 -2.5q-2 -1 -9.5 -3.5t-9.5 -3.5t-9.5 -6t-9.5 -6q-2 -2 -6.5 -3.5l-10 -3.5l-10 -3.5t-5.5 -2.5l-13 -13q-1 -1 -9 -6t-10 -6q-2 -2 -12 -9.5t-13 -9.5
l-16 -13l-20 -16l-18 -14.5t-9 -7.5q-3 -2 -10 -8.5t-15 -15l-15.5 -16t-10.5 -11.5q-1 -1 -3.5 -4.5l-5.5 -7.5l-6 -8t-4 -5t-4.5 -5.5l-8 -10l-8 -10t-4.5 -5.5q-1 -2 -6 -9.5t-7 -9.5l-10 -17.5t-9 -14.5q-2 -3 -6 -12.5t-6 -12.5q-2 -4 -5 -11l-6 -14.5t-5.5 -13
t-2.5 -6.5q-2 -4 -4 -11.5l-4 -15.5l-3.5 -14.5t-1.5 -8.5v-6q0 -5 -0.5 -12t-0.5 -14v-11zM459 211q0 2 2 14t4 17t4.5 14.5t5.5 16.5q1 5 3 7q1 2 5.5 12t6.5 14l7 10t6 9l8.5 8.5l11.5 11.5l11 11t7 6q5 4 19 11t19 8q1 1 8 1h21q8 0 9 -1q1 0 10.5 -5t14.5 -7
q2 -2 9.5 -6.5t9.5 -6.5q5 -4 8 -8.5t5 -10.5v-6q-3 -4 -8.5 -15l-11.5 -23t-11 -23t-7 -15l-3 -9l-4.5 -13t-4 -13t-1.5 -9v-57q0 -2 3 -9.5t4 -9.5v-32q-1 -2 -3 -6.5t-4 -6.5q-1 -2 -5.5 -6t-6.5 -6l-11 -8t-8 -5t-7 -0.5t-9 -0.5t-9 0.5t-7 0.5q-5 2 -19 9t-19 10
l-32 32q-5 5 -9.5 14l-5.5 11q-2 7 -6 15t-4 10q-1 3 -2 9.5l-2 13.5t-1.5 13.5t-0.5 8.5z" />
    <glyph glyph-name="A" unicode="A" horiz-adv-x="488" 
d="M10 38v-13q1 -2 3 -9.5t3 -9.5l3.5 -3.5t3.5 -2.5h38l25 25q1 2 3.5 6.5t2.5 6.5t1 9.5t2.5 16t2.5 16t1 9.5t2 9.5l4 15.5l4 15.5t2 9.5q1 3 3 15t4 17q0 1 1 6.5t2 12t2 12t1 7.5q1 3 5.5 15t6.5 16q1 1 3 3.5t4 3.5q2 2 7 4l5 2h133q7 0 13 -6q2 -2 9.5 -14.5
t9.5 -17.5q1 -3 6.5 -15l12 -26l12 -26t7.5 -15q0 -1 2.5 -6t6 -10.5l6.5 -10t4 -5.5q1 -2 3.5 -6.5t2.5 -5.5q1 -2 2.5 -7.5t4 -12t4 -12t2.5 -6.5q1 -2 3 -7t3 -6l12.5 -13t12.5 -12q2 -1 6.5 -3.5t6.5 -3.5h6q2 2 7 6.5t6 6.5q2 2 6.5 12t6.5 13v7l-3 9t-4.5 12t-4 11
t-1.5 6q-2 5 -12 25.5l-22 44.5l-22.5 44t-13.5 25l-8 19.5l-13 30.5l-13.5 30.5t-9.5 20.5q-2 3 -8 18t-12 32l-11.5 32t-6.5 19q-2 5 -6.5 17.5t-5.5 14.5q-2 1 -6 12l-17.5 37t-14.5 33q-2 2 -4 7t-3 6q-2 3 -6.5 10.5t-5.5 8.5q-2 2 -9.5 7t-9.5 5q-1 0 -6.5 0.5
t-8.5 0.5t-9.5 -0.5t-7.5 -0.5q-2 0 -6.5 -2.5t-6.5 -3.5q-1 -1 -5.5 -10.5t-6.5 -14.5q-2 -3 -6.5 -15.5t-6.5 -16.5l-30.5 -84.5t-26.5 -86.5q0 -2 -2.5 -12.5t-3.5 -12.5l-6 -12t-7 -13q-1 -2 -6.5 -9.5t-5.5 -9.5v-45q-1 -2 -3.5 -12.5t-3.5 -12.5q-1 -3 -4 -15t-6 -26
l-5.5 -26t-3.5 -15q0 -2 -2.5 -11.5t-6 -20.5l-6.5 -20t-4 -11q-1 -4 -3 -16t-3 -16zM162 329v6q0 2 2.5 12t3.5 13q1 5 3.5 15t5.5 20t6 18.5t4 10.5l2.5 7.5t4 9.5t4 9t2.5 5q2 2 6 5t6 2q1 -1 6 -8t7 -11l7 -14l6 -12q1 -5 4.5 -15.5l7.5 -22.5t8 -22.5t5 -14.5
q0 -1 0.5 -3.5t0.5 -3.5q0 -2 -0.5 -4l-0.5 -2q-1 -2 -6 -4.5t-7 -1.5q-2 -1 -17 -1h-38q-13 0 -14 1q-2 0 -9.5 2t-9.5 4z" />
    <glyph glyph-name="B" unicode="B" horiz-adv-x="432" 
d="M10 133v-6q2 -4 6.5 -14t6.5 -12q1 -1 4.5 -5.5l8 -10l8 -10t4.5 -5.5q1 -2 6 -10t7 -9q1 -2 10.5 -6.5t14.5 -6.5q23 -10 46.5 -18t48.5 -14q6 -1 18 -3.5t14 -2.5h44q2 0 11.5 2.5l13.5 3.5q7 2 19 6l24 8t21.5 7.5t11.5 4.5q3 1 10 5.5t9 6.5l7.5 15l11.5 23l11.5 23
l7.5 15q2 3 4.5 10t2.5 9v76q0 1 -2.5 8.5t-4.5 10.5q0 2 -2.5 6.5t-3.5 6.5q-2 4 -7 11t-6 8q-3 4 -12 13l-19 19l-19 19t-13 12q0 2 -0.5 6.5t-0.5 6.5t0.5 7t0.5 6t1.5 5.5t4 10l4.5 10t3 5.5l3.5 10.5t2.5 8.5q1 6 3 16t4.5 20.5t4 18t1.5 9.5v101q-1 3 -3 12.5t-4 12.5
q-1 2 -5.5 9.5t-6.5 9.5t-6.5 7t-6.5 6q-4 4 -17 11.5t-15 7.5q-1 0 -6 1t-11 2l-12 2t-9 1l-5 0.5t-7 0.5q-3 0 -7.5 -0.5t-5.5 -0.5q-5 0 -17 -2.5t-15 -3.5l-7 -3.5l-11 -5.5l-11.5 -6t-8.5 -4q-2 -1 -8.5 -6t-14 -10t-14 -10t-7.5 -6q-2 -1 -6.5 -3.5t-6.5 -2.5
q-1 0 -6.5 -1t-12 -2l-12.5 -2t-7 -1q-12 -12 -19 -26v-25q0 -2 1 -10.5t2.5 -18t2.5 -18t1 -10.5v-222q0 -2 1 -14.5t3 -23.5q1 -8 2 -12t3 -16q1 -11 3 -16q4 -11 7.5 -19t11.5 -19q6 -6 7 -6h44l13 12v95q0 1 6 7q2 1 6.5 3.5t6.5 2.5h31q3 0 13 2.5t13 3.5q1 1 6.5 4
l12.5 6.5t12.5 6t6.5 2.5q0 1 4 1h15q5 0 6 -1q5 0 9.5 -3.5t9.5 -8.5q8 -6 15 -14.5t10 -11.5q1 0 3 -5t4 -7q1 -4 3.5 -11t2.5 -8t0.5 -11t0.5 -15t-0.5 -14.5t-0.5 -10.5q0 -2 -2.5 -9.5t-3.5 -9.5q-2 -2 -9 -12t-10 -13q-3 -4 -10 -11t-9 -8q-2 -2 -11.5 -6.5
t-14.5 -6.5l-9 -3t-12 -4.5t-11 -4t-6 -1.5h-38q-3 0 -10 1t-15 2t-15 2t-10 2q-8 0 -15 4t-11 6l-16.5 11.5t-14.5 9.5q-2 1 -9.5 6.5t-16 12.5t-16 12.5t-9.5 6.5q-2 2 -6.5 4t-6.5 3h-12q-2 -1 -6.5 -6t-6.5 -7zM130 399v76q1 2 3 12t4 13q2 5 6.5 14.5l5.5 11.5
q2 3 7.5 8.5l11.5 11.5l11.5 11t7.5 7l5 2.5l11.5 5.5l12.5 6t9 5l10 3.5t9 2.5h19q3 -1 10 -3t9 -3q2 -2 7 -6.5t6 -6.5q2 -2 4 -9.5t2 -9.5q0 -1 0.5 -11.5t0.5 -16.5q0 -5 -0.5 -16.5t-0.5 -12.5t-0.5 -6.5t-1.5 -12.5l-2 -14t-2 -11q-4 -24 -10.5 -43.5t-21.5 -39.5
q0 -1 -2.5 -3t-3.5 -3q-4 0 -15 0.5t-23 0.5t-23 -0.5t-15 -0.5q-3 0 -16 -3t-16 -3l-2 -0.5t-4 -0.5q-1 0 -3 0.5t-3 0.5q-1 2 -2.5 8t-2.5 13.5t-1.5 14t-0.5 8.5z" />
    <glyph glyph-name="C" unicode="C" horiz-adv-x="444" 
d="M10 209q2 -4 6.5 -16t6.5 -16q1 -3 5 -12.5t9.5 -20l10 -19t6.5 -11.5q2 -2 6.5 -9.5t6.5 -9.5t9 -9.5t10 -9.5t8.5 -7l11.5 -10l11 -9.5t7 -5.5l5 -2.5l7 -3.5q6 -3 15 -7l18 -8l16 -7t8 -3q2 -1 13 -3.5t13 -3.5q2 0 6.5 -2.5t5.5 -3.5h76q2 0 9.5 3t9.5 3t6.5 -3
t6.5 -3h12q2 1 4 6t3 7l6 6q1 1 6 3.5t10 5.5l10 6t6 4q3 2 13 12t12 13q2 2 6.5 11.5t6.5 14.5v6q-8 25 -13 25q-1 0 -7.5 0.5t-9.5 0.5t-8.5 -0.5t-6.5 -0.5t-8.5 -8l-12.5 -13q-2 -2 -8.5 -7t-14.5 -10q-2 -1 -6.5 -3t-6.5 -3q-3 -2 -10 -4t-8 -2t-6 -0.5t-12 -0.5h-48
q-6 0 -11 0.5t-6 0.5q-8 1 -22.5 4t-27.5 8l-17.5 10t-14.5 9l-10.5 10l-15.5 15l-15 15.5t-9 10.5q-1 1 -6 10.5t-7 14.5l-7 17.5t-6 14.5q0 2 -1 7t-2 11l-2 11.5t-1 8.5q0 1 -0.5 14t-0.5 20t0.5 20.5t0.5 14.5q0 3 1 8.5l2 11.5t2 11t1 7q1 6 4.5 16.5t8 21.5l8 20
t5.5 12q2 4 9 15l15 23l15.5 23t10.5 15l13.5 14l20.5 21l21 21t15 13q2 1 9.5 3.5t9.5 2.5q5 2 14.5 4.5t10.5 2.5t8 -2.5t11 -4.5q2 0 6.5 -2.5t6.5 -3.5q1 -1 9 -6.5t10 -6.5h25q1 1 3.5 6t2.5 7q0 1 0.5 5.5t0.5 7.5q0 2 -0.5 7l-0.5 5q0 2 -2.5 7t-3.5 6q-3 3 -13 10.5
t-12 8.5q-3 2 -15 4t-17 2q-1 1 -15 1h-37q-11 0 -11 -1q-2 0 -11.5 -5t-14.5 -7q-3 -2 -13 -9.5t-12 -9.5l-57 -57q-1 -1 -8 -10.5t-11 -14.5q-38 -55 -63 -121q-1 -2 -3.5 -9.5t-2.5 -9.5q-2 -5 -4 -13l-4 -16l-3.5 -14t-1.5 -7v-9q0 -7 -0.5 -16.5t-0.5 -19.5v-27
q0 -8 0.5 -18t0.5 -19v-11z" />
    <glyph glyph-name="D" unicode="D" horiz-adv-x="526" 
d="M64 156q0 -2 0.5 -9t1 -15t1 -15t0.5 -10q0 -1 2.5 -5.5t3.5 -6.5t7.5 -8.5l14 -14l14 -14t8.5 -7.5q2 -2 9.5 -6.5t9.5 -6.5q2 -1 9.5 -4.5t16 -8t16 -8t9.5 -4.5q1 -1 3 -4t3 -3q2 0 13 0.5t13 -0.5q1 0 6.5 -1t12 -2t12 -2t7.5 -1h18q2 0 7 3t6 3q2 1 9.5 3.5t9.5 3.5
q3 0 13 3t12 3q1 0 6.5 3t13 7.5l14.5 8.5t11 6q14 8 25.5 17.5l24.5 20.5q1 1 3.5 3t3.5 3l14.5 18t10.5 14q1 1 3.5 6l5.5 11t5.5 12t4.5 9q23 51 31 107q0 2 1 9.5t2 16.5l2 17.5t2 13.5v7q-1 7 -2.5 19.5t-2.5 24.5t-1.5 21.5t-0.5 10.5t-2 10.5t-4 14.5q-1 3 -3 10
t-3 9q-2 2 -6.5 12t-6.5 13q-1 2 -5 8q-4 7 -9 14.5t-5 9.5q-2 2 -8 8.5l-13.5 14l-14 13.5t-8.5 8t-11.5 8l-17.5 11l-9 6t-13 6q-9 4 -12 7q-2 0 -7 1.5t-11 3.5l-11.5 4t-8.5 3q-5 2 -14.5 4.5t-11.5 2.5h-40q-30 0 -59.5 -2t-58.5 -11q-5 -2 -19 -6.5t-19 -5.5
q-1 -1 -5.5 -3t-6.5 -4q-3 -2 -8 -5l-10 -6l-9 -5.5t-5 -2.5l-4.5 -4.5l-7.5 -7.5t-8 -7.5t-5 -5.5q-2 -2 -6.5 -9.5t-6.5 -9.5q-1 -2 -3 -9t-3 -10v-6q1 -5 3.5 -12l2.5 -7q1 -1 6 -1.5t7 -0.5q7 0 13 2q2 2 8.5 7.5l13.5 11.5l13 11.5t9 7.5q2 1 8.5 4.5l14.5 7.5
l15.5 7.5l11.5 5.5q3 1 13 3.5t13 2.5q3 1 14.5 0t15.5 -1q0 -2 1 -9t0 -9q0 -3 -2.5 -12.5t-3.5 -12.5v-28q0 -19 -0.5 -41.5t-0.5 -42.5v-64q0 -22 0.5 -44.5t0.5 -39.5v-18q0 -3 1 -13t2 -22t2 -22t1 -13q0 -1 0.5 -13t0.5 -18q0 -4 -0.5 -16t-0.5 -16q-3 0 -12.5 2.5
t-12.5 3.5q-3 2 -15 9l-17 10q-4 2 -15.5 12t-15.5 14q-2 1 -9.5 9.5t-9.5 9.5t-11 2.5t-11 1.5zM257 183q0 6 -0.5 21t-0.5 31v113q0 17 0.5 29.5t0.5 14.5q0 3 1 15t2 26t2 26t1 15v38q0 2 -3 9.5t-3 9.5q-1 2 -1.5 8t-0.5 8q3 0 8.5 -0.5l11.5 -1l11.5 -1t7.5 -0.5
q1 0 6 -1.5t11 -4t12 -4.5l9 -3q2 -1 6.5 -3t6.5 -3q6 -4 18 -11t14 -8q1 -1 5.5 -6t6.5 -7t9 -11.5l10 -13.5l6.5 -10t6.5 -9q1 -2 3.5 -6.5t2.5 -6.5q1 -2 2.5 -7t4 -11t4 -11.5t2.5 -8.5q2 -5 4 -14t2 -11v-5q0 -4 0.5 -10t0.5 -12v-10q0 -8 -0.5 -22.5t-0.5 -16.5
q0 -1 -0.5 -6.5t-1.5 -12.5l-2 -14t-2 -11l-3.5 -17t-2.5 -15q-3 -7 -5.5 -14.5t-5.5 -12.5q-3 -7 -8 -17t-7 -13q-2 -2 -6.5 -9.5t-5.5 -9.5l-7 -7l-10 -10t-9.5 -9t-5.5 -5t-6 -4l-10 -6t-10 -5.5t-6 -3.5q-2 -1 -9.5 -6.5t-9.5 -6.5l-7.5 -0.5t-11.5 -0.5q-2 0 -9.5 0.5
t-9.5 0.5q-1 4 -3 16t-3 16v6q-1 4 -2.5 13t-3.5 19t-3.5 19t-2.5 12z" />
    <glyph glyph-name="E" unicode="E" horiz-adv-x="362" 
d="M29 89q1 -4 6 -13.5t7 -12.5l4.5 -4.5l7.5 -7.5t7.5 -8t5.5 -5q1 -1 6.5 -3t6.5 -3q2 -2 9.5 -10t9.5 -9q2 -2 12.5 -4t12.5 -3q1 0 3.5 -2.5t2.5 -3.5h70q2 0 9.5 3t9.5 3q2 1 7 2t11 2l11.5 2t8.5 1q2 0 9.5 -0.5t9.5 0.5l9 9q4 4 6 6.5t4 4l4.5 3.5t7.5 5q6 4 8.5 6.5
t4.5 4t4 3.5l5 5l10 10q2 2 7 9.5t6 9.5v12q-2 5 -7 7h-31q-1 -1 -6 -3t-7 -4q-2 -1 -9.5 -6t-9.5 -6l-13.5 -7l-11.5 -6q-4 -2 -16 -4t-16 -2q-1 -1 -15 -1h-40q-13 0 -14 1q-3 0 -13 2t-13 4q-1 1 -8.5 5.5t-10.5 7.5q-1 1 -3.5 3t-2.5 3q-1 1 -5 11.5t-6 17.5q-1 6 -2 9
t-3 15q-2 13 -3 17t-2 11.5l-2 15.5t-1.5 14.5t-0.5 8.5q-1 1 -1 15v32q0 9 1 10l6 6q2 0 11.5 1t20.5 1h27q14 0 29.5 -1t18.5 -1q2 0 13 -2.5t13 -3.5q3 0 9.5 -1l13.5 -2t13 -2t8 -1q1 0 10 -0.5t13 -0.5q5 0 13 0.5l8 0.5q7 0 13 6q2 1 4 3.5l2 2.5q1 1 1 4v11q0 4 -1 4
q0 2 -6 7.5t-13 5.5q-2 1 -11.5 3t-20 3.5t-20 3.5t-11.5 3q-2 0 -9.5 3t-9.5 3q-4 1 -13 2t-19 2t-19 1.5t-12 0.5q-5 0 -16.5 0.5t-24.5 0.5t-25 -0.5t-16 -0.5l-7 7l-0.5 11.5t-1.5 27.5l-2 33.5t-2 28.5v19q0 2 2.5 11.5l3.5 13.5q2 4 4 11t3 8q2 7 6 7h190q2 0 6.5 4.5
t5.5 7.5q1 0 1 3v12q0 4 -1 4q0 2 -2.5 6.5t-3.5 6.5q-2 1 -6.5 3.5t-6.5 2.5q-6 1 -24 3t-38.5 4t-38.5 4t-25 2h-76q-1 0 -8 -2.5t-11 -4.5q-5 -2 -10.5 -4.5t-8.5 -7.5q-2 -4 -5.5 -10t-6.5 -12t-5 -11l-2 -5v-260q0 -3 1 -10t2 -15t2 -15t1 -10q1 -7 3 -24t3.5 -36
t3.5 -36t3 -24z" />
    <glyph glyph-name="F" unicode="F" horiz-adv-x="356" 
d="M10 488v-140q0 -2 1 -14t2 -27l2 -30t1 -24q0 -4 1 -13.5t2.5 -21t2.5 -21t1 -13.5q0 -2 1 -9.5t2 -16t2 -16t1 -9.5v-13q0 -8 1 -21l2 -26t2 -23.5t1 -11.5q1 -3 3 -10t4 -9q2 -4 9.5 -11t9.5 -8h25q4 2 13.5 11.5t11.5 13.5l0.5 5.5t0.5 7.5q0 3 -0.5 10t-0.5 9
q0 3 -1 15t-2 26t-2 26t-1 15v76q1 2 3 4l3 3q3 1 8.5 4l11.5 6l11 5.5l7 3.5q4 1 15 4.5l23 7.5l22.5 7.5t15.5 5.5q2 1 10.5 2.5t18.5 4t18 4t10 2.5q3 1 13 5.5t13 6.5l6.5 6.5t5.5 6.5q1 0 1 2v8q0 2 -1 3q-5 5 -12 11t-13 8h-25q-3 0 -13.5 -2.5t-23.5 -6t-26 -6.5
t-20 -4q-2 -1 -9 -3t-10 -4q-1 0 -5.5 -2t-10 -4t-10 -4t-5.5 -2q-4 -2 -11 -4.5t-8 -2.5h-26q-2 1 -4 6t-2 7v146l2 2.5t4 3.5q2 2 7 4t6 2l5.5 1t12.5 2l14 2t12 2q2 0 9.5 1t16 2t16 2t9.5 1q1 0 6.5 1t12 2t12 2t7.5 1h63l12 6l14 7q3 2 10.5 9.5t8.5 9.5v25q0 1 -2.5 3
t-4.5 4l-10.5 7t-8.5 5l-5.5 0.5t-8.5 0.5t-9.5 -0.5t-7.5 -0.5q-2 0 -7.5 -1t-12 -2t-12 -2t-6.5 -1q-3 0 -9 -1t-13.5 -2t-13.5 -2t-9 -1q-2 0 -9.5 -1t-15.5 -2.5t-15.5 -2.5t-9.5 -1t-9.5 -3t-9.5 -3q-5 0 -18 -0.5t-27 -0.5t-26.5 0.5t-17.5 0.5q-2 -1 -6.5 -3t-6.5 -3
l-19 -19q-1 -2 -3.5 -9.5t-2.5 -9.5z" />
    <glyph glyph-name="G" unicode="G" horiz-adv-x="444" 
d="M9 273q0 -5 0.5 -15.5l0.5 -10.5q0 -1 1.5 -8t3.5 -15l4 -16t4 -12q5 -17 11.5 -35t13.5 -35q1 -2 3.5 -6.5t2.5 -5.5q2 -2 9 -11.5l10 -13.5q2 -2 5.5 -7t7.5 -10l7.5 -9.5t5.5 -5.5q0 -1 2.5 -3.5t3.5 -2.5l14 -11t11 -8q1 -1 5 -4.5t9 -7l9 -6.5t5 -3l23 -11h44
q1 0 9.5 4l18.5 9l20 10.5t15 8.5l13 9t13 10l44 44q1 1 4.5 6l7.5 11t7.5 12t5.5 9t5.5 10l7.5 15l7.5 15t4.5 10l6 15.5l8 21.5l7.5 20.5t4.5 12.5q0 1 0.5 6t0.5 7q0 3 -0.5 7.5l-0.5 4.5q-1 2 -11 11.5l-15 14.5q-2 1 -6 3.5t-6 2.5h-26q-2 0 -10 -1t-18 -2t-18.5 -2
t-9.5 -1q-3 0 -15.5 -1t-26.5 -2.5t-26 -2.5t-15 -1q-2 0 -6.5 -1t-9.5 -2t-9.5 -2t-5.5 -1q-5 -2 -14.5 -6.5t-11.5 -6.5l-0.5 -3.5t-0.5 -5.5t0.5 -5.5t0.5 -4.5q1 -2 6 -6.5t7 -5.5q3 -2 15 -4t17 -3q7 0 25.5 0.5t39 1t38.5 1t26 0.5q0 -2 0.5 -7t1.5 -10.5t1 -10.5v-6
q0 -2 -5 -11.5t-7 -14.5q-1 -2 -4.5 -7.5t-8 -11.5t-8 -11.5t-4.5 -7.5q-3 -3 -9 -10t-12 -15q-2 -4 -8 -10l-9 -9l-9 -6t-12 -8.5t-11 -7.5t-6 -3q-2 -1 -14.5 -3.5t-17.5 -2.5q-1 -1 -5 -1h-11q-3 0 -3 1q-3 1 -13 5.5t-12 6.5q-3 2 -10 10t-15 14q-5 5 -7 8t-10 12
q-8 12 -9 13q-2 3 -4.5 8.5t-5.5 11.5l-5.5 11l-3.5 7q-2 4 -5 14l-6 20l-5.5 18.5t-2.5 10.5t-0.5 17t-0.5 23v11q0 7 0.5 13.5t0.5 11.5v6q0 1 1.5 7.5l3.5 14.5l4 16t4 13q1 3 2.5 8.5t4 11.5t4 11t2.5 7q2 5 9 19t9 19q1 3 5 8t8 11l7.5 11l5.5 8t6.5 8.5l9.5 11.5
l9.5 11t5.5 7q3 2 12.5 9.5t13.5 9.5q2 1 9 3.5t10 2.5l4 0.5t6 0.5t5 -0.5t4 -0.5l2.5 -5t3.5 -8q1 -2 3 -12.5t3 -12.5l6.5 -6.5t6.5 -5.5q0 -1 2 -1h7q3 0 4 1q2 0 6.5 2.5t5.5 3.5q2 2 7 12t6 13v25q-1 3 -3 10.5t-3 8.5q-2 3 -11.5 12.5t-14.5 13.5q-1 1 -5.5 3t-6.5 3
q-4 2 -14 4t-12 2q0 1 -7 1h-18q-6 0 -6 -1q-2 0 -9 -2t-10 -4q-2 -1 -7 -3t-6 -3q-3 -2 -10.5 -8l-14.5 -12q-5 -4 -7 -6t-10 -9q-8 -8 -9 -10q-16 -19 -30.5 -39t-25.5 -43q-3 -6 -10 -19l-12 -23l-4 -8t-3 -7l-4.5 -16.5t-4.5 -14.5q-1 -3 -3.5 -15l-3.5 -17
q0 -4 -1 -11.5l-2 -15.5t-2 -15t-1 -8q0 -2 -0.5 -14t-0.5 -17z" />
    <glyph glyph-name="H" unicode="H" horiz-adv-x="356" 
d="M263 241l7 -13q0 -2 1 -16l2.5 -34t2.5 -32q0 -4 1 -20t2 -34t2 -34t1 -20q0 -1 2.5 -8.5t4.5 -10.5q1 -2 3 -6.5t3 -6.5l6 -6h32q2 1 7 6t6 7v139q0 3 -1 14t-2.5 24t-2.5 24t-1 14q0 7 -1 25t-2 38.5t-2 38.5t-1 25v44q0 7 -1 24t-2 36t-2 36t-1 24q-2 4 -9.5 13.5
t-9.5 12.5q-2 1 -6.5 3t-6.5 3h-13q-2 -2 -7 -6.5t-5 -6.5v-202l-7 -32h-9q-8 0 -19.5 -0.5t-18.5 -0.5h-18q-11 0 -23 0.5t-21 0.5h-11q-7 0 -19.5 2.5t-12.5 3.5v184q0 4 -6 6q-2 2 -6.5 4t-6.5 3h-19q-1 -1 -5.5 -3t-6.5 -4q-1 0 -3.5 -2.5l-3.5 -3.5q-1 -2 -3.5 -6.5
t-2.5 -6.5t-1 -8.5l-2 -13.5t-2 -13t-1 -9q-1 -7 -2.5 -24t-2.5 -36t-1.5 -36t-0.5 -24q0 -2 -2.5 -6.5t-3.5 -6.5q-1 -1 -4 -4.5t-6.5 -8t-6 -8t-2.5 -4.5t-0.5 -3t-0.5 -4q0 -1 0.5 -3.5l0.5 -2.5l25 -25q2 -2 4 -9.5t3 -9.5l12 -178q1 -2 3 -9.5t4 -9.5q1 -1 5.5 -3.5
t6.5 -2.5q1 0 7.5 -0.5t10.5 -0.5q3 0 8.5 0.5l5.5 0.5q3 2 10 9t9 10v51q0 2 -1 11.5t-2 20t-2 20t-1 11.5v13q0 1 -1 7.5t-2.5 14t-2.5 14t-1 8.5v6q4 11 7 18.5t6 7.5h139z" />
    <glyph glyph-name="I" unicode="I" horiz-adv-x="121" 
d="M10 365v-38q0 -19 1 -53.5l2 -69.5t2 -63t1 -34q0 -3 1 -15t2.5 -26t2.5 -26t1 -15q0 -2 -1 -9.5t1 -9.5l10 -2.5t15 -3.5h12q5 1 17.5 3t14.5 3q1 1 3 3.5t3 3.5q1 0 6.5 2.5t6.5 3.5v6q-1 1 -3.5 6l-3.5 7l-3.5 10t-2.5 9l-3 17.5l-4 23.5t-3.5 22t-1.5 12
q-1 10 -2.5 35.5t-2.5 55t-1.5 55.5t-0.5 37q0 3 0.5 16t1.5 29t2.5 31.5t2.5 23.5q0 2 0.5 8t1.5 13l2 13.5t2 9.5q0 3 2 12t4 19.5t4 19.5t2 12q0 1 0.5 2t0.5 2t-0.5 2l-0.5 1l-6.5 13.5l-5.5 11.5q-1 1 -6 3.5t-7 2.5l-3.5 0.5t-5.5 0.5t-5.5 -0.5t-4.5 -0.5t-5.5 -2
t-6.5 -4q-2 -1 -4 -3.5t-3 -2.5q0 -2 -2.5 -13t-3.5 -13q0 -1 -2 -6.5t-4 -12t-4 -12t-2 -6.5q-1 -2 -2 -7t-2 -11l-2 -11.5t-1 -8.5q0 -4 -1 -15.5t-2 -24.5l-2 -25t-1 -17z" />
    <glyph glyph-name="J" unicode="J" horiz-adv-x="419" 
d="M6 153q0 -3 0.5 -10t1.5 -15.5t1.5 -16t0.5 -10.5q0 -1 5 -10.5t8 -14.5q2 -2 6 -9.5t6 -9.5l13 -13l18 -14.5t14 -10.5l4.5 -2t10.5 -4l12.5 -4t10.5 -3l13.5 -3.5t11.5 -2.5h38q1 0 8 2.5t16.5 5.5l18.5 6t14 5q2 1 6.5 3t5.5 3q4 2 14 9.5t12 9.5t5.5 6t7.5 8l7.5 7.5
l4.5 4.5t4 5.5t6 9.5l5.5 9.5t3.5 6.5q0 1 1.5 6t4 11t4.5 12l3 9l3.5 14t2.5 12q0 3 1 12t2 19t2 19t1 13q0 1 0.5 8t0.5 11q0 3 -0.5 10.5t-0.5 8.5q0 5 -1 15l-2 21t-2 20.5t-1 12.5t-1.5 11.5t-4 18.5t-4.5 19.5l-3 14.5q0 1 -2 8t-4 11q-1 2 -4 9.5l-6 15.5t-5.5 15.5
t-3.5 9.5v7l6 6q2 1 6.5 3.5t6.5 2.5q1 1 7.5 3t14 4t14 4t8.5 2q4 1 11 3.5t8 2.5q2 1 9.5 6t9.5 7q2 1 4.5 3.5l2.5 2.5v19q-2 2 -9 9.5t-10 9.5l-2 0.5t-4 0.5t-4 -0.5t-3 -0.5q-3 -1 -15 -4l-27 -7l-30 -8l-23 -6q-2 -1 -9.5 -3.5t-9.5 -2.5q-6 -2 -20.5 -4.5
t-17.5 -2.5h-101q-3 0 -10 -1t-15.5 -2t-15.5 -2t-10 -1q-2 -1 -6.5 -6t-5.5 -7q-1 0 -1 -3v-7q0 -2 1 -2q2 -3 9 -10t10 -9q4 0 15 -1t23 -2.5t22.5 -2.5t15.5 -1q6 0 15.5 -1l18.5 -2t15.5 -2t7.5 -1t5 -3l9 -7t9.5 -8t7.5 -7q2 -2 6.5 -9.5t6.5 -9.5q0 -1 2.5 -11
t3.5 -15l3.5 -17t2.5 -14q1 -4 2 -12l2 -16.5t2 -15t1 -7.5v-114q0 -2 -0.5 -7t-1.5 -11t-2.5 -11.5t-2.5 -8.5t-5.5 -15t-6.5 -16q-2 -2 -6.5 -9.5t-6.5 -9.5q-21 -27 -50 -38q-4 -2 -11 -4.5t-8 -2.5h-45q-4 1 -13.5 3t-11.5 4q-1 1 -6.5 5t-13.5 10.5t-12 9.5
q-6 5 -10 11.5t-9 13.5q0 1 -2.5 6.5t-3.5 6.5l-13 13l-12 6q-2 0 -8.5 0.5t-8.5 0.5z" />
    <glyph glyph-name="K" unicode="K" horiz-adv-x="590" 
d="M9 277v-62q0 -20 0.5 -40.5t0.5 -36.5v-18q0 -3 1 -13.5t2 -22.5l2 -23.5t1 -16.5q1 -5 3.5 -14.5t3.5 -10.5q1 -2 13 -9t18 -10h7q1 1 6 6.5t6 6.5t6 1q6 0 7 -1q0 2 1 8.5l2 13.5t2 13t1 9q0 1 2 5.5l4.5 10l4.5 10t2 6.5q1 2 3 12.5t3 12.5q2 5 6 13.5l8 17t7.5 14.5
t4.5 6l12 6q3 -3 9 -9.5t13.5 -13.5l13.5 -13t9 -8l12.5 -12l17.5 -16l16.5 -14.5t10.5 -8.5q2 -2 7.5 -5.5l11.5 -7.5l11.5 -7.5t7.5 -4.5q1 -1 5.5 -3t9.5 -4.5t10 -4t6 -1.5q2 -1 9.5 -6.5t9.5 -6.5q1 0 6.5 -1t12 -2t12 -2t7.5 -1q4 -1 13.5 -3t11.5 -3l7 -3.5t6 -3.5h6
l7 7q1 0 6 -0.5t6 0.5q2 0 7 3t6 3q2 0 12.5 -0.5t12.5 0.5t9.5 9t9.5 10q2 1 10 6t9 7q3 2 11.5 10.5l13.5 13.5l7 7t9 12q4 5 6.5 8.5t3.5 5.5q14 20 14 48q-2 0 -10 -1.5t-10 -2.5q-2 0 -9 -5.5l-12 -9.5q-4 -3 -5 -4t-9 -6t-10 -7q-1 -1 -4.5 -3.5l-7.5 -5.5l-8 -6
t-5 -4l-12 -6t-16 -8.5t-15 -7.5t-8 -3l-7.5 -0.5t-11.5 -0.5q-5 0 -14 0.5t-11 0.5q-5 0 -17 2.5t-15 3.5q-2 1 -8.5 4.5l-14.5 7.5l-15.5 8l-11.5 6q-1 0 -3.5 2.5l-3.5 3.5t-9 6t-9 7q-29 21 -53 45.5t-42 55.5q-2 2 -4.5 7t-2.5 6v38l6 11.5l7 13.5q1 1 5 6l9.5 11.5
l10 12t7.5 8.5q2 3 10.5 11.5l13.5 13.5q5 4 7 6t14 11l18 15q5 4 14.5 11t10.5 8q1 0 8 2.5t11 3.5q5 2 14.5 4t10.5 2h45q3 1 13 3t12 4q2 1 7 5.5t6 6.5q0 1 0.5 6t0.5 7t-0.5 7t-0.5 6q-2 4 -6.5 11.5t-6.5 7.5h-82q-6 -3 -9.5 -5t-13.5 -6q-10 -3 -24 -8t-16 -7
q-1 0 -6 -3t-11 -7.5t-12 -8.5l-9 -6q-3 -3 -17 -13l-25 -18q-8 -8 -12.5 -9.5t-9.5 -3.5l-6 -1l-12.5 -2l-12.5 -2t-7 -2q-2 -1 -9 -8t-10 -11q-2 -2 -6.5 -11.5t-5.5 -13.5q-2 -2 -4 -12t-3 -13q0 -2 -1 -9.5t-2 -16t-2 -16t-1 -9.5q-1 -2 -3 -9.5t-3 -9.5l-7 -10.5
t-6 -8.5q-2 -1 -4 1.5t-4 2.5q0 10 -1 34.5t-1.5 52t-1.5 52t-1 34.5q0 1 1.5 10.5l3.5 22l4 24.5t4 19q0 2 3 13t3 13q0 1 0.5 9t0.5 12t-0.5 10t-0.5 7q-1 2 -8 9.5t-11 9.5l-2.5 0.5t-3.5 0.5q-2 0 -4 -0.5l-2 -0.5l-12 -11.5t-14 -14.5q-1 -1 -3.5 -5.5t-2.5 -6.5
q0 -1 -1 -7.5t-2 -14.5l-2 -16t-1 -13q-2 -12 -4 -32l-4 -39l-3.5 -33.5t-1.5 -15.5v-16q0 -13 -0.5 -31t-0.5 -37z" />
    <glyph glyph-name="L" unicode="L" horiz-adv-x="375" 
d="M16 51l7 -7q7 -5 14.5 -9.5t11.5 -5.5l14.5 -6.5t9.5 -3.5t10.5 -1t18.5 -2t18 -2t10 -1t8.5 -1t14 -2.5t14 -2.5t8.5 -1q6 0 19 -1l27 -2t26 -2t16 -1h83l6.5 6.5t5.5 6.5q2 2 4 6l3 6v13q-2 3 -9.5 10t-9.5 9q-4 0 -14.5 1l-21.5 2l-21 2t-13 1q-4 0 -18.5 1t-32 2.5
t-32 2.5t-18.5 1q-3 0 -10 1l-14 2t-13 2t-8 1q-1 0 -13 5t-18 8q-3 1 -8 3.5l-5 2.5q-6 6 -6 13q-1 3 -2 12t-2 19.5t-2 19.5t-1 12v158q0 2 1 9.5t2 16.5l2 17.5t2 13.5q0 4 2.5 22t6 38.5l6.5 38t4 22.5v12q-1 5 -3.5 14.5t-3.5 11.5q-1 1 -5.5 3.5t-6.5 2.5q-1 0 -7 0.5
t-9 0.5t-9 -0.5t-7 -0.5t-6 -2.5l-7 -3.5l-3.5 -3.5t-2.5 -3.5q-1 -2 -3.5 -12t-2.5 -13q-2 -11 -4 -32.5l-4 -44l-3.5 -40.5t-1.5 -22v-16q0 -14 -0.5 -33.5t-0.5 -39.5v-66q0 -21 0.5 -42.5t0.5 -38.5v-18q0 -4 1 -13.5t2 -21t2 -21t1 -13.5z" />
    <glyph glyph-name="M" unicode="M" horiz-adv-x="470" 
d="M368 348v-266q0 -3 3.5 -17.5t5.5 -20.5q1 -1 6 -8t7 -11l6 -6q5 -4 14.5 -11t11.5 -8h6q2 1 9 6l10 7q6 2 6 6q0 1 0.5 7.5t0.5 10.5t-0.5 11.5t-0.5 8.5t-2 10.5t-4 14.5q-1 2 -3 9.5t-3 9.5q-1 7 -2.5 24t-2.5 36.5t-1.5 36.5t-0.5 24v57q0 3 1 16t2.5 28t2.5 28t1 16
q0 2 -0.5 7t0.5 6q0 3 2 14t4 24t4 24t2 14q1 4 2.5 11t2.5 14t1.5 12.5t0.5 6.5v64l-6 11.5l-7 13.5q-2 2 -6.5 7t-6.5 6h-19q-3 -2 -13 -6.5t-12 -6.5l-5 -7.5t-8 -11.5q-4 -6 -11 -18.5t-8 -13.5q-2 -4 -8 -21.5l-13.5 -38l-14 -38.5t-8.5 -22q-2 -3 -7.5 -16.5
t-11.5 -26.5l-9.5 -21.5t-9.5 -17.5q-2 -2 -9 -12l-10 -14q-6 -8 -13.5 -13.5t-18.5 -5.5h-6l-13 13q0 1 -2 6.5t-4 12t-4 12t-2 7.5q-1 1 -3.5 6l-3.5 7q-1 3 -4 15t-6 26l-5.5 26t-3.5 15q-1 5 -4.5 16t-8 23t-8 22.5t-4.5 14.5q-1 2 -6 9l-7 10q-1 2 -5.5 6.5l-6.5 6.5
q-3 2 -13 9.5t-13 9.5q-2 1 -6.5 3.5t-5.5 2.5h-19q-2 0 -6.5 -2.5t-6.5 -3.5q-2 -2 -7 -6.5t-6 -6.5t-5.5 -16t-6.5 -22q-1 -3 -3.5 -13t-3.5 -12q-2 -8 -4 -22t-2 -16v-12q0 -10 -0.5 -24.5t-0.5 -28.5v-47q0 -14 0.5 -28.5t0.5 -25.5v-12q0 -1 0.5 -7t1.5 -14l2 -16
t2 -13q0 -2 1 -7.5t2.5 -12t2.5 -12t1 -6.5v-13q0 -6 1 -17l2 -22t2 -20t1 -11q1 -5 3 -17t3 -14t6 -9l7 -10q1 -2 3.5 -4.5l2.5 -2.5h32q2 1 7 3t6 4l9 38v253q2 -5 9 -17.5l14.5 -27l14.5 -27l10 -17.5q2 -3 10.5 -11t13.5 -15q5 -4 7 -5t11 -4l15 -3h19q4 1 16 3t15 4
q2 0 7 2.5t6 3.5l32 32q1 1 4.5 6l7.5 11t7.5 12t5.5 9q1 1 3.5 6.5t6 12t6 12t3.5 7.5q2 2 8 6.5t8 5.5z" />
    <glyph glyph-name="N" unicode="N" horiz-adv-x="489" 
d="M270 38q2 -1 9.5 -3t9.5 -3q1 -2 14 -9.5l21 -12.5q7 -3 9 -4t12 -3q10 -1 13 -3h26q2 0 6 2.5t6 3.5l32 32q1 1 3 6t3 7q2 5 6.5 19t6.5 19q6 20 10.5 41l8.5 41q1 3 2 9l2 12t1.5 11t0.5 6q1 6 2.5 19t2.5 27.5t1.5 26.5t0.5 16v158q0 5 -0.5 17.5t-1.5 26.5t-2.5 27
t-2.5 18q0 1 -2 8t-4 11q-1 2 -3 6.5t-3 5.5q-1 2 -3.5 4t-3.5 3h-19q-2 -1 -6.5 -6t-5.5 -7q-1 -12 -2.5 -41.5t-2.5 -63t-1.5 -63t-0.5 -41.5v-63q0 -4 -1 -14.5t-2 -22.5l-2 -23t-1 -16q-1 -5 -3 -19t-3 -19q-1 -3 -2.5 -10t-4 -15.5t-4 -15.5t-2.5 -10l-3 -9t-4.5 -12.5
t-4 -11.5l-1.5 -5q-2 -2 -9 -9.5t-10 -9.5l-2 -0.5t-3 -0.5q-2 0 -4.5 0.5l-2.5 0.5q-2 1 -7 3t-6 3q-2 2 -8 8.5l-13 13.5l-13.5 13.5l-9.5 9.5q-2 1 -6.5 6t-9.5 11.5l-10 12.5t-6 8q-8 11 -14 21t-11 23q-2 5 -6 14l-8 18t-7.5 16l-4.5 9q0 2 -2.5 9.5t-6 16.5t-6.5 17.5
t-4 13.5q-1 2 -3 8.5l-4 13.5t-3.5 13.5t-1.5 8.5q-2 4 -7 23t-10 40.5l-9.5 40t-5.5 23.5q0 1 -2 6.5l-4 11.5l-4 11.5t-3 8.5q-1 2 -3 7t-3 6l-19 19q-2 1 -6.5 3t-6.5 3h-12q-2 0 -6.5 -2.5t-6.5 -3.5l-13 -13q-2 -2 -6 -12t-6 -13q-1 -2 -3 -7t-3.5 -11t-3.5 -11.5
t-3 -8.5q-1 -5 -3 -13t-4.5 -16t-4 -14.5t-1.5 -7.5q0 -5 -1 -19t-2 -30l-2 -31t-1 -21v-19q0 -16 -0.5 -38t-0.5 -44v-63q0 -19 0.5 -40.5t0.5 -41.5v-27q0 -2 1 -7t2 -11l2 -11.5t1 -8.5l3.5 -7t3.5 -5h50q1 0 3.5 2t3.5 4l6.5 13.5l5.5 11.5q0 1 0.5 3t0.5 3
q0 2 -0.5 4.5l-0.5 2.5q0 3 -3 13t-3 12q0 1 -1 12.5t-2 26.5l-2 31t-1 25v7q0 11 1 40l2 61l2 61t1 40q2 -1 6.5 -5.5l6.5 -6.5q2 -8 4.5 -14.5t4.5 -14.5q5 -10 9.5 -24t6.5 -17l18 -51.5t20 -49.5q1 -3 4 -9l6 -12l5.5 -11t3.5 -6l7 -11l11 -17.5l11.5 -17.5t8.5 -11
q1 -2 6.5 -7t6.5 -6l7.5 -11l11.5 -17l11.5 -17.5z" />
    <glyph glyph-name="O" unicode="O" horiz-adv-x="406" 
d="M10 303v-88q0 -3 1 -10l2 -14t2 -13t1 -7q1 -3 4 -10t7.5 -15l8.5 -15.5t6 -10.5q1 -2 6 -9l11 -15l12 -15.5t9 -10.5q1 -2 5 -6l9 -9l10 -10l7 -7q3 -2 8 -6l10 -8l9 -7.5t5 -3.5q2 -2 12.5 -4t12.5 -3q1 0 6 -3t7 -3h50q2 0 7 3t6 3q1 1 6 0.5t7 -0.5q1 1 6 3.5t6 3.5
q3 1 13 3t13 3q3 4 10 15l15 23l15 22.5t10 15.5q4 5 11.5 17t7.5 14q1 3 4.5 11.5l7.5 19l7.5 19.5l5.5 14q2 4 4.5 13.5t2.5 11.5v76q0 1 -2.5 13t-4.5 18q-5 24 -13 45t-18 44q-1 3 -4 8.5l-6 11.5l-5.5 11l-3.5 7q-2 2 -6.5 9.5t-6.5 9.5q0 1 -3 3.5l-3 2.5q-2 3 -6.5 8
l-9.5 11l-9.5 11t-6.5 8v3q0 7 3.5 10.5t3.5 11.5v7l-3.5 10t-3.5 9l-12 12l-10 7t-9 6t-9.5 3.5t-9.5 2.5q-1 0 -3 0.5t-3 0.5q-2 0 -4.5 -0.5l-2.5 -0.5q-5 0 -14 -1l-18 -2t-16.5 -2t-8.5 -1t-6 -2.5l-7 -3.5q-2 -2 -6.5 -5.5l-10 -7.5t-9.5 -7.5t-5 -5.5q-3 -2 -13 -12
t-12 -13q-4 -4 -11 -13.5t-8 -11.5q-3 -5 -9.5 -17.5t-13 -26.5l-13 -27t-9.5 -18q-1 -3 -5.5 -17.5l-6.5 -20.5q-1 -2 -3.5 -14l-3.5 -17q0 -4 -1 -11l-2 -14.5t-2 -13t-1 -6.5zM67 247v19q0 5 1 15l2 20t2 18t1 10q0 1 1.5 7.5t4 14.5t4.5 15.5t3 12.5q1 3 3 10t3 9
q1 3 5.5 12l9.5 19l10 19.5l7 13.5l3.5 7t5.5 10t6 9t4 5q1 2 5.5 6.5l6.5 6.5l13.5 7t12.5 5q0 1 3 1h11q4 0 5 -1l7.5 -7.5l11.5 -11.5l11.5 -11t7.5 -7q2 -3 10.5 -13t13.5 -18q5 -4 10 -11.5l10 -14.5l19 -38q2 -3 6 -15t6 -17l3 -9t4.5 -12t4 -11t1.5 -6q0 -3 1 -8
l2 -10t2 -9l1 -4q0 -3 -1 -16.5t-3 -26.5q-1 -9 -2 -14t-3 -17t-3 -15q0 -2 -2 -7t-4 -11l-4 -11.5t-3 -8.5q0 -1 -2.5 -6l-3.5 -7q-4 -6 -11 -18t-8 -13t-5 -5.5l-9 -10t-10 -10t-8 -6.5q-2 -2 -9.5 -6.5t-9.5 -5.5t-11.5 -3.5l-13.5 -3.5h-13q-2 1 -9.5 3t-9.5 4
q-2 1 -9 5.5l-10 6.5q-2 1 -7 5.5l-11 9.5l-11.5 10t-8.5 7q-2 2 -7 6.5t-5 5.5q-1 2 -4 7.5l-6 11.5t-5.5 11.5t-3.5 7.5q-1 3 -3 8.5t-4.5 11.5t-4 11t-1.5 7q-1 4 -3 21t-3 24z" />
    <glyph glyph-name="P" unicode="P" horiz-adv-x="495" 
d="M231 37v-14q0 -4 1 -4q1 -3 8.5 -10.5t10.5 -8.5h31q5 2 12 9t7 10v177q0 1 2.5 3t3.5 4q2 1 6.5 3t6.5 3q1 0 7.5 1.5t14 4l14 4.5t8.5 3q2 0 12 5l14 7q20 11 34.5 28l28.5 35l6.5 10t6.5 9q1 2 3 6.5t3 6.5q3 8 7.5 22t5.5 16v82q-1 2 -3 12t-4 14l-6.5 13.5
l-5.5 11.5q-2 3 -8 9.5t-13.5 13.5l-14 13t-9.5 8q-2 2 -14 9.5t-17 9.5q-2 1 -9 3t-10 4q-4 1 -14 3t-12 3q-3 1 -10 2l-14 2t-13 1.5t-7 0.5q-2 0 -17.5 0.5t-23.5 0.5h-11q-7 0 -13.5 -0.5t-11.5 -0.5h-5q-2 0 -14.5 -2t-17.5 -4q-3 0 -12.5 -3.5l-17.5 -6.5q-5 -2 -8 -3
t-15 -6q-6 -2 -10 -3.5t-6 -2.5q-2 -2 -7 -4t-6 -3l-10 -7l-14.5 -10t-13 -9t-6.5 -5q-2 -1 -5.5 -4.5t-8 -7.5t-8 -8t-4.5 -6q-1 -1 -5.5 -8t-6.5 -11q-1 -2 -3.5 -6t-3.5 -6l-3.5 -10t-2.5 -9v-13q1 -2 6 -6.5t7 -6.5h12q3 3 11.5 10.5l17.5 15.5l17 15t11 10
q19 16 39.5 28t43.5 23q2 1 9 3t10 3q4 1 16 3.5t15 2.5q2 1 9 0t9 -1q0 -3 0.5 -9t0.5 -13v-21q0 -2 -1 -9.5t-2 -16t-2 -16t-1 -9.5q0 -3 -1 -16t-2 -28t-2 -28t-1 -16q-1 -5 -2.5 -13.5t-2.5 -16.5t-1.5 -14t-0.5 -7q-1 -2 -9 -9.5t-10 -9.5q-1 -1 -3 -6t-3 -7v-6l5 -8.5
l5 -8.5l9.5 -12t5.5 -9q2 -2 4 -9.5t3 -9.5q0 -5 1 -14t2 -19t2 -18.5t1 -11.5t-1 -16.5t-2 -28.5t-2 -28t-1 -16q-1 -1 -1 -7zM294 326q0 7 0.5 20t0.5 15q0 3 1.5 16l3.5 29l4 32l3 24q1 3 3.5 15.5t3.5 16.5q1 2 3 9.5t3 9.5q2 0 8 0.5t8 0.5q3 0 9 -0.5t7 -0.5
q3 -1 9.5 -4.5l13.5 -7.5t13 -8t8 -6t5 -7t6 -11t5.5 -11.5t2.5 -8.5q0 -1 0.5 -14t0.5 -20v-11q0 -6 -0.5 -13t-0.5 -12v-6t-2 -8t-4 -11l-6.5 -13.5t-6.5 -11.5t-5.5 -6.5l-7.5 -10l-7.5 -10t-4.5 -5.5q-2 -1 -9 -5.5l-10 -6.5q-5 -3 -14.5 -7.5l-11.5 -5.5l-5.5 -0.5
t-7.5 -0.5q-3 0 -7.5 0.5l-4.5 0.5q-1 1 -3.5 8t-2.5 11q0 1 -0.5 14.5t-0.5 20.5z" />
    <glyph glyph-name="Q" unicode="Q" horiz-adv-x="489" 
d="M384 13q2 -2 9 -7t10 -6h12q4 2 14 12t12 13v6q0 25 -3.5 49.5t-3.5 50.5v8q1 2 3 9t4 10q0 2 2.5 8.5t6 14l6.5 14t4 8.5l7 20.5t5 17.5q0 2 1 8.5t2.5 14.5t2.5 15.5t1 11.5v26q0 5 -1 15t-2.5 20t-2.5 18t-1 10q0 4 -5 18l-7 20q-1 1 -4 6.5t-7.5 13l-8.5 14.5t-6 10
t-5.5 9t-7.5 12l-7.5 11t-4.5 6l-19 19q-3 2 -13 9.5l-22 16l-22 16t-13 9.5q-1 1 -5.5 4.5l-10 8l-10 8t-5.5 4.5q-2 2 -9.5 4t-9.5 3q-1 0 -7.5 1t-14.5 2l-16.5 2t-12.5 1h-6q-5 -1 -14.5 -3.5t-11.5 -2.5q-2 -1 -7.5 -4l-11.5 -6l-11.5 -5.5t-7.5 -3.5q-2 -2 -12 -9.5
t-13 -9.5l-38 -38q-1 -1 -6 -8.5l-7 -10.5q-1 -2 -4 -7l-6 -10.5t-5.5 -9.5t-3.5 -5l-6.5 -13.5l-5.5 -11.5q-2 -5 -6 -16.5l-8 -23.5l-7.5 -22.5l-4.5 -13.5q-1 -5 -3.5 -19t-2.5 -19v-57q0 -2 2.5 -14t3.5 -18q1 -3 3.5 -13t3.5 -12q1 -4 3 -11t3 -8q1 -2 8 -14t11 -18
l7 -10.5t6 -8.5l2.5 -2.5t3.5 -5.5q25 -35 62 -64.5t78.5 -44t83 -8t74.5 42.5q13 -6 14 -22q2 -8 3.5 -20t1.5 -15zM73 279v57q0 2 1 7t2 11l2 11.5t2 8.5l3.5 11t5 17t5.5 17.5t5 11.5q0 1 2.5 6l5.5 11l6 12t5 9t4 7.5t6 10.5q8 12 9 13t5 4q7 5 17 11t16 11l13.5 7
t11.5 5q1 1 8 1h22q7 0 8 -1q1 0 8 -2.5l15.5 -5.5l16.5 -6t11 -5q4 -2 15.5 -9.5t15.5 -9.5q1 -1 5.5 -5t9.5 -9l10 -10l7 -7q1 -2 4.5 -6.5t8 -9.5t8 -9.5t4.5 -6.5q1 -1 3.5 -6l3.5 -7q2 -5 6 -19.5t9 -25.5q3 -8 5.5 -19t4.5 -18v-44q0 -3 -1 -9.5l-2 -13.5l-2 -13.5
t-1 -8.5l-3 -3t-4 -3h-6q-1 1 -3.5 3t-2.5 3q-1 1 -4 7l-6 12.5l-5.5 12t-3.5 6.5q-4 6 -11 18t-8 14l-8 8l-13.5 13l-14 13.5l-9.5 9.5q-4 4 -13.5 11.5t-11.5 7.5q0 1 -6 1h-19q-6 0 -7 -1q-1 0 -3.5 -2t-2.5 -4q3 -4 10 -15t15.5 -23t15.5 -23t10 -15l5 -10l9 -18l10 -20
t7 -15q2 -2 6.5 -14.5t6.5 -17.5q4 -11 7.5 -22t5.5 -22v-7q-1 -2 -3.5 -6.5t-3.5 -5.5q-2 -2 -9 -9.5t-10 -9.5q-1 -2 -8.5 -6.5t-10.5 -6.5q-2 -2 -6.5 -4t-5.5 -2q-4 -2 -16.5 -4t-15.5 -3h-32l-10 5l-18.5 9t-20 10t-14.5 8q-3 2 -13 9.5t-12 9.5q-2 1 -5.5 5.5t-8 9.5
t-8 10t-4.5 7t-4.5 8t-8 13t-8 13.5t-4.5 9.5q-1 2 -3 9t-3 10q-2 5 -4 17.5t-3 14.5z" />
    <glyph glyph-name="R" unicode="R" horiz-adv-x="482" 
d="M377 13q3 -1 11 -3t17 -4.5t17.5 -4t11.5 -1.5h19q2 2 9.5 9t9.5 10l0.5 2.5t0.5 3.5t-0.5 3.5t-0.5 3.5q-2 2 -6.5 7.5l-9.5 11.5l-9.5 11.5t-6.5 7.5q-1 1 -6.5 3.5l-12 5.5l-12.5 6t-7 4q-3 1 -13 7.5l-21.5 14l-21.5 14l-13 8.5q-2 1 -10.5 6t-18.5 10l-18.5 9.5
t-9.5 5.5l-21.5 14.5l-34 22.5l-35 23l-23.5 16q-1 1 -5 4.5t-9.5 7t-10 7.5t-7.5 7q-1 1 -3.5 3t-2.5 3q-2 2 -4.5 7t-1.5 6q0 1 5 5.5t7 6.5q1 1 8 3t11 4q3 0 13 3t12 3q3 1 8.5 2.5t11.5 4t11 4t7 2.5q2 0 7 2.5t6 3.5q1 0 6 1.5t10.5 4l10 4.5t5.5 3q2 1 9.5 5.5
t9.5 6.5l10 10l15 15.5l15 15.5l10 10q2 2 9.5 12t9.5 13t7 13l6 12q0 1 1.5 8t3.5 15l4 16l3 12q1 0 1 3t-1 3q0 2 -2.5 12l-3.5 14t-3.5 11t-2.5 8l-19 19q-2 2 -12 9l-13 9q-2 1 -6.5 3.5t-6.5 3.5q-3 2 -10.5 4t-8.5 2t-7 0.5t-9 0.5t-9 -0.5t-7 -0.5q-4 0 -12.5 -1.5
t-18 -4l-17 -4.5t-9.5 -3q-2 0 -9.5 -3.5t-17.5 -9l-20 -10.5l-16 -8q-2 -1 -9.5 -6.5t-9.5 -6.5q-3 -2 -12.5 -6.5t-12.5 -5.5q0 3 0.5 10t0.5 15t-0.5 15t-0.5 10q0 2 -2.5 6.5t-3.5 6.5l-7 7t-6 5q0 1 -3 1h-7q-2 0 -3 -1q-2 -1 -11.5 -10.5t-13.5 -14.5q-2 -2 -4 -6.5
t-2 -5.5q0 -2 -1 -10.5t-2.5 -18.5t-2.5 -18.5t-1 -9.5q0 -2 -1 -8.5t-2 -14t-2 -14t-1 -8.5v-14q0 -12 -0.5 -28t-0.5 -33v-55q0 -17 0.5 -34t0.5 -30v-14q0 -3 1 -15.5l2 -26l2 -26t1 -15.5q0 -5 1 -23.5t2.5 -40t2.5 -40t1 -22.5q0 -3 2 -12.5t4 -12.5q0 -1 2.5 -3.5
l3.5 -3.5l7 -3.5t6 -2.5l5 -0.5t8 -0.5q2 0 7 0.5l5 0.5q2 0 6.5 2.5t6.5 3.5l13 13v8q0 28 -3.5 55t-3.5 55v8q1 9 3.5 23.5t3.5 14.5h19q1 -1 10.5 -7.5l23.5 -16t22 -14.5q1 0 5 -2.5t8.5 -6t8 -6.5t4.5 -4t5.5 -3.5t10 -6t10 -6t5.5 -3.5q4 -2 14 -8l21 -13l21 -13.5
t14 -9.5l9 -6l12 -8t11 -7t6 -4l6 -6q1 -2 3 -10t4 -9q1 -2 9 -4t9 -3q2 -1 4.5 -5.5t2.5 -6.5zM105 360q0 3 -0.5 11.5t-0.5 11.5q0 4 0.5 12.5t0.5 9.5t2 10.5t4 14.5q2 9 5 16.5t8 15.5l6.5 10t5.5 9l38 38q3 2 10.5 6t15.5 7.5t15 7t10 4.5q1 0 12 0.5t16 0.5
q4 0 15 -0.5t14 -0.5q3 -2 10 -9t9 -10l0.5 -5.5t0.5 -8.5t-0.5 -10t-0.5 -8t-2.5 -8.5l-3.5 -10.5q-2 -5 -7 -14.5t-6 -10.5l-51 -51q-1 -1 -8 -5.5t-11 -6.5q-13 -8 -27.5 -12t-29.5 -7q-2 0 -15.5 -3.5t-15.5 -3.5t-6.5 -3t-6.5 -3t-4 2.5t-2 3.5z" />
    <glyph glyph-name="S" unicode="S" horiz-adv-x="489" 
d="M9 247q0 -5 0.5 -14.5t0.5 -10.5q0 -2 2.5 -9.5t3.5 -9.5l11 -19l14 -24l12.5 -21.5t7.5 -11.5q2 -3 9 -10.5l16 -16.5l18 -17.5t14 -12.5q2 -3 11.5 -9.5l17.5 -11.5q8 -4 14 -7.5t20 -10.5t20.5 -10t12.5 -5l17.5 -6.5t12.5 -3.5t10 -1t15 -2l15.5 -2t10.5 -1h63
q2 0 12 2.5l14 3.5q2 2 12 6.5t13 6.5t12.5 9t12.5 10q12 10 21 21t17 23q2 2 4.5 7t2.5 6v38q0 1 -2.5 8.5t-4.5 10.5q-1 2 -3 7t-3 6l-16 15.5l-16 15.5q-2 1 -8 6t-14 11l-16 12l-12 9l-9 6l-12 8l-11 7.5t-6 4.5q-3 1 -11.5 5.5l-18.5 9.5l-19.5 9.5t-14.5 6.5
q-2 2 -15.5 6.5t-15.5 6.5q-1 0 -3.5 3t-3.5 3q-1 1 -5.5 3.5t-10 6t-10 6t-5.5 3.5q-2 2 -12 9.5t-14 9.5q-1 1 -3 3.5t-3 3.5l-11.5 14.5t-7.5 10.5l-0.5 6.5t-0.5 10.5q0 16 3 27.5t11 25.5q2 2 6.5 9.5t5.5 9.5l6.5 6.5t6.5 5.5q1 1 6 4.5l11 7.5l12 8l9 6l7 3.5t6 2.5
t6 0.5t8 0.5q2 0 6.5 -0.5l4.5 -0.5q2 -1 9 -10.5t10 -14.5q1 -1 3 -8.5t3 -10.5q1 -2 3.5 -13t3.5 -13q0 -4 6 -6q6 -6 13 -6l2 -0.5t4 -0.5t4 0.5l2 0.5q2 0 6.5 2.5t6.5 3.5l13 13q0 2 0.5 10.5t0.5 11.5q0 4 -0.5 12.5t-0.5 9.5l-3.5 7l-5.5 11l-6 11.5t-4 8.5l-32 32
q-3 2 -13 7t-12 5q-1 1 -10 1h-30q-10 0 -11 -1q-1 0 -8.5 -2t-10.5 -4q-2 -1 -6.5 -3t-6.5 -3l-13.5 -10t-11.5 -9l-38 -38q-1 -2 -8.5 -11.5t-10.5 -14.5l-7 -10t-6 -9t-3.5 -9.5t-2.5 -9.5q0 -1 -0.5 -12t-0.5 -16q0 -6 0.5 -17t0.5 -12t2.5 -8t3.5 -11q1 -2 3.5 -6.5
t3.5 -5.5q1 -2 9 -9.5t10 -9.5q1 -1 3 -6.5t3 -6.5l6 -6q3 -2 13 -9.5t13 -9.5q3 -3 9 -7l12 -8t11 -7t6 -4q3 -2 16 -8.5l28 -13.5l28 -13.5t16 -8.5q1 -1 5 -3.5t9.5 -5.5l10.5 -6t7 -4l8.5 -5.5l11.5 -7.5l11 -7.5t7 -4.5l18 -14.5t14 -11.5t6.5 -11.5t5.5 -13.5
q1 0 1 -5v-15q0 -5 -1 -5q0 -7 -6 -13q-2 -2 -11.5 -9l-13.5 -10q-2 -1 -6.5 -3.5t-6.5 -2.5q-3 -2 -9 -4l-12 -4t-11 -3.5t-6 -1.5h-32q-4 0 -11.5 1l-15.5 2t-14.5 2t-8.5 1q-3 0 -8.5 2l-11.5 4t-11 4t-7 3q-1 0 -6.5 3t-13 7.5l-14.5 8.5t-11 6l-10 7t-9 6q-3 3 -9 8.5
l-12 11.5l-11 11t-6 7t-6 9.5l-11 16.5l-12 17.5t-9 13.5l-6 12.5l-6 12.5l-10 17.5t-9 14.5t-6.5 7t-6.5 6h-13q-1 -1 -3.5 -3t-2.5 -4t-0.5 -12t-0.5 -13z" />
    <glyph glyph-name="T" unicode="T" horiz-adv-x="508" 
d="M251 32q0 -2 2.5 -6.5t3.5 -6.5q3 -4 10.5 -11.5t8.5 -7.5h44q2 2 4 6.5t3 6.5v31q0 1 -1 6t-2.5 10.5t-2.5 10t-1 5.5q0 5 -1 16.5l-2 23.5t-2 22.5t-1 13.5v13q0 12 -0.5 26.5t-0.5 28.5v45q0 13 0.5 25.5t0.5 21.5v11l3.5 38l5.5 57.5l5.5 57t4.5 37.5q6 0 22.5 1
l34.5 2l34.5 2t22.5 1q3 1 15 3t17 4q8 0 11.5 6l7.5 13v6q-3 4 -10 11t-9 8q-1 1 -3 1t-4 1q-8 2 -17 3t-14 1q-1 0 -11.5 0.5t-25.5 0.5h-103q-14 0 -25.5 -0.5t-12.5 -0.5q-3 0 -10.5 -0.5t-16.5 -1.5l-17.5 -2t-12.5 -2q-2 0 -9.5 -2t-15.5 -4.5t-15.5 -4.5t-9.5 -2
q-3 0 -10.5 -1l-15.5 -2t-15 -2t-10 -1q-5 0 -17.5 -0.5t-26.5 -0.5t-27 0.5t-18 0.5q-1 -2 -3 -6.5t-3 -6.5l-0.5 -2.5t-0.5 -4.5q0 -1 0.5 -3l0.5 -2q1 -2 8.5 -9.5t10.5 -9.5q1 -1 6 -3.5l7 -3.5l10.5 -3.5t8.5 -2.5h76q2 0 9.5 1l15.5 2l15.5 2t9.5 1h35q11 0 20.5 -0.5
t13.5 -0.5q0 -3 0.5 -12t0.5 -12q0 -6 -2 -29.5t-4.5 -50l-4.5 -49.5t-2 -29v-95q0 -5 1 -22.5t2.5 -38t2.5 -38.5t1 -22v-69z" />
    <glyph glyph-name="U" unicode="U" horiz-adv-x="400" 
d="M130 19q2 -1 9.5 -3.5t9.5 -2.5t9.5 -1t16 -2.5t16 -2.5t9.5 -1q1 0 6 -3t6 -3h7q1 0 6 3t6 3q2 1 13 3.5t13 3.5q1 0 6 5.5t6 6.5q2 2 9.5 8.5l16 14l16 14t9.5 8.5q1 1 4.5 5.5l7.5 9.5l7.5 9.5t5.5 6.5q1 1 3 6t4 7q1 4 4 11l6 14l5.5 12.5t3.5 6.5l3 9l4 12t3.5 11
t1.5 6q1 3 2.5 13.5t2.5 22.5t1.5 23.5t0.5 16.5v127q0 3 -0.5 14.5t-1.5 25t-2.5 25.5t-2.5 17q0 2 -2 14t-4 18q-1 3 -3 13t-3 12q-2 4 -4 11t-3 8q-2 3 -9.5 10t-9.5 9l-3.5 0.5t-5.5 0.5t-5.5 -0.5t-4.5 -0.5q-1 -1 -3.5 -6t-2.5 -7v-57q0 -2 1 -9.5l2 -15.5l2 -15.5
t1 -9.5q0 -1 0.5 -9.5t0.5 -19.5v-81q0 -11 -0.5 -20t-0.5 -10q0 -4 -0.5 -14.5t-1.5 -22.5l-2 -23t-2 -16q0 -2 -2.5 -11.5l-3.5 -13.5l-4 -11.5l-6 -17.5l-5.5 -17l-3.5 -11q-1 -1 -3 -5.5t-4 -6.5q-2 -4 -6.5 -11t-5.5 -8q-3 -4 -12.5 -13.5t-13.5 -12.5q-2 -2 -9 -6.5
t-10 -5.5q-2 -2 -9.5 -4.5t-9.5 -2.5h-44l-12 6t-13 7q-2 2 -9.5 9t-9.5 10q-3 4 -10 16t-9 16q-2 3 -5 11.5l-6 17.5t-5 17t-3 10q-1 3 -2 11.5t-2 19t-1.5 19.5t-0.5 14q0 1 -0.5 10t-0.5 20v78q0 12 0.5 22.5t0.5 14.5q1 3 3 13t3 13q0 2 1.5 11.5t4 20t4.5 20t3 11.5
q0 1 2 6.5t4 12t4 12t2 7.5q1 2 2 7t2 11l2 11.5t1 8.5v25q-1 2 -6 7t-7 6q-1 0 -7 0.5t-9 0.5t-9 -0.5t-7 -0.5q-1 -1 -8.5 -8t-10.5 -11q-2 -5 -4.5 -9.5t-4.5 -12.5l-5 -19.5t-5 -15.5q-1 -3 -3 -12l-4 -18t-3.5 -17t-1.5 -10q0 -1 -0.5 -7.5t-1.5 -14.5t-2.5 -16.5
t-2.5 -12.5q0 -6 -1 -16l-2 -20t-2 -18t-1 -9v-70q0 -5 1 -16.5t2 -24.5t2 -24.5t1 -16.5q1 -3 3 -15t4 -16q0 -2 1.5 -7t3.5 -11l4 -11.5t3 -8.5t3 -8l4 -10t4 -9t2 -5q2 -5 9.5 -17.5t9.5 -14.5q3 -4 12 -13l19 -19l19 -19t13 -12z" />
    <glyph glyph-name="V" unicode="V" horiz-adv-x="432" 
d="M9 530q0 -2 0.5 -6t0.5 -5q0 -2 2 -7.5l4.5 -12l4.5 -12t2 -6.5q1 -6 4.5 -31.5t8 -54t8 -54t4.5 -31.5q0 -2 2 -10l4.5 -18l4.5 -18.5t2 -10.5q0 -1 1 -6.5t2 -12l2 -12.5t1 -7q0 -2 3 -12t3 -13q1 -3 3 -11t3.5 -17.5t3.5 -17.5t3 -11q5 -25 10.5 -48t14.5 -47
q1 -2 3 -6.5t4 -6.5q2 -3 6.5 -10.5t5.5 -8.5q2 -1 6.5 -3.5t6.5 -2.5h32l12 6t13 7t13 12t12 13q2 2 6.5 9l9.5 15.5l9.5 16t6.5 10.5q4 7 13.5 25.5l19.5 39l18.5 38l11.5 23.5q1 2 6 14l11 27l12 30t9 24t9 25l12 32.5t11 29t6 15.5q0 1 2.5 9t5.5 19.5l6 22.5l5 18
q2 5 4.5 15t2.5 11q0 4 0.5 15t0.5 24t0.5 24t0.5 15q-4 0 -17 -1t-17 -1l-3 -3t-3 -4q-1 -1 -2.5 -5t-4 -9t-4 -9.5l-2.5 -7.5t-3 -8.5t-3.5 -11.5t-3.5 -11t-3 -7q0 -2 -2.5 -13t-3.5 -13q0 -1 -3 -6t-3 -6q-2 -3 -7 -16.5t-10 -28.5l-9.5 -28l-5.5 -16l-11.5 -29.5
l-16 -40l-15 -37t-8.5 -20.5q-2 -5 -9 -19l-15 -30l-15.5 -31l-10.5 -21q-1 -2 -4.5 -7l-7.5 -11l-8 -11.5t-6 -8.5q-2 -2 -6 -6.5t-6 -6.5h-7l-3 3t-3 4q-2 6 -4 13.5t-6 18.5q-5 15 -9 35t-6 28q-1 4 -3 13t-4.5 18t-4 16.5t-1.5 9.5q-1 3 -4 18t-6 33t-5.5 36t-3.5 27
q0 2 -1 8.5l-2 13.5t-2 13t-1 9q0 2 -1 10.5t-2.5 18t-2.5 18t-1 10.5q-1 4 -3 14l-4 20t-3.5 18.5t-1.5 10.5q-2 4 -6.5 14t-6.5 12q-1 1 -6 3t-7 3h-6q-2 -1 -6.5 -3t-6.5 -3l-14.5 -14.5t-10.5 -11.5l-0.5 -3t-0.5 -5z" />
    <glyph glyph-name="W" unicode="W" horiz-adv-x="685" 
d="M428 6q1 1 6 1t6 -1q1 0 6 -1l10.5 -2t10 -2t5.5 -1h32q3 0 10 2.5t9 3.5l5 5t9.5 9t10 10t6.5 8q2 2 7 9.5t6 9.5q1 1 6.5 6t6.5 7q2 2 9.5 14t9.5 17t6.5 14.5l9.5 19.5l9.5 18.5t5.5 11.5q1 1 2.5 5.5l3.5 10.5l4 12.5t3 9.5q1 2 3 11.5t3 13.5q1 6 3 16t4.5 20
t4 17.5t1.5 9.5t1 11.5t2 20t2 20t1 11.5t1 9.5t2.5 16t2.5 16t1 9.5v6q-1 4 -2 10.5l-2 12.5t-2 10.5l-1 4.5q-1 5 -5.5 14.5t-6.5 11.5h-13q-1 -1 -3.5 -3t-2.5 -4q-1 -3 -3 -11t-3.5 -17.5t-3.5 -17.5t-3 -11q0 -2 -1 -8.5t-2 -14t-2 -14t-1 -7.5l-4.5 -18.5l-7.5 -31.5
l-8 -33.5t-6 -23.5q-1 -3 -3 -9.5t-4 -14t-3.5 -14t-1.5 -7.5t-2.5 -6.5l-5.5 -12.5l-6 -14t-5 -11l-3.5 -7t-3.5 -6q-1 -2 -4.5 -7l-7.5 -11l-7.5 -11.5l-5.5 -8.5l-10 -13.5t-9 -11.5q-2 -3 -9.5 -10t-9.5 -9q-6 -6 -13 -6q-1 0 -5.5 2t-6.5 4q-2 1 -6.5 6t-6.5 7
q-1 1 -6 9t-7 10q-1 1 -3 3.5l-6 7.5q-4 7 -10 15t-11 15.5l-9 13.5t-5 8q-2 3 -5 8.5l-6 11.5l-5.5 11t-2.5 7q0 1 -0.5 7t-0.5 9t0.5 9t0.5 7l25 50q1 2 3.5 8.5t6 14t6 14t3.5 8.5q1 3 6.5 14t12.5 23.5t12.5 23.5t6.5 14q2 4 6 15l8 23l7.5 23t4.5 15v26q-2 5 -8 12.5
t-11 12.5q-1 0 -3 0.5t-4 0.5q-1 0 -3 -0.5t-3 -0.5q-2 -4 -9.5 -16t-9.5 -16q-1 -1 -3.5 -6.5l-5.5 -12l-6 -12.5t-4 -7q-2 -4 -10.5 -19.5l-18 -34l-18 -34t-10.5 -19.5q-6 -13 -13 -24.5t-18 -19.5q-1 2 -3.5 9.5t-3.5 9.5q0 1 -3 6t-3 6q-1 4 -6 20t-10 34t-10 34t-6 20
q-1 1 -3 6l-4 10.5l-3.5 10l-1.5 4.5q-2 4 -9.5 13.5t-9.5 12.5q-2 1 -6.5 3.5t-6.5 2.5q-1 0 -7 0.5t-9 0.5t-9 -0.5t-7 -0.5t-3.5 -2.5t-2.5 -3.5t-0.5 -7.5t-0.5 -9.5t0.5 -8.5t0.5 -6.5q1 -2 4.5 -9.5t8 -16t8 -16t4.5 -9.5q0 -1 1.5 -6t4 -11t4.5 -12l3 -9
q1 -2 3 -12.5t3 -12.5q0 -1 2 -5.5l4.5 -10l4.5 -10t2 -5.5q3 -11 8.5 -27l11 -31t9 -26l3.5 -11v-13q0 -1 -4.5 -8l-10.5 -16l-12.5 -18l-10.5 -15q-3 -4 -13 -13.5t-13 -11.5q0 -1 -2 -1h-8q-2 0 -2 1q-1 0 -3.5 2t-3.5 4q-2 3 -6.5 12t-10 19t-9.5 19t-5 13q-3 7 -5.5 14
t-5.5 14q-3 11 -8 25.5t-7 16.5q-2 5 -6.5 19t-5.5 19q-1 3 -3 9.5t-4.5 13.5t-4 13t-1.5 8q0 3 -3 16t-3 16q0 1 -2 7.5l-4.5 14l-4.5 14t-2 8.5q-1 2 -3 9.5t-4 16.5t-4.5 18.5l-4.5 17.5q-2 11 -3 14t-6 13q-4 9 -7 12q-2 4 -9.5 11.5t-9.5 7.5q-1 1 -7 1.5t-9 0.5
t-9 -0.5t-6 -1.5q-2 -1 -6.5 -10.5t-6.5 -14.5v-13q0 -5 1 -13.5l2 -17.5t2 -16.5t1 -9.5q1 -2 3 -9t4 -10l2.5 -6t6 -12.5l6.5 -12.5t4 -7q0 -2 2 -9t4 -15.5t4 -16t2 -9.5q1 -2 3.5 -10t5 -18t5.5 -20t5 -15l3.5 -10t3.5 -9q0 -2 2 -6.5t4 -10t4 -10t2 -5.5l5 -14.5l8 -24
t8 -23.5t5 -14q0 -2 5.5 -9.5t6.5 -9.5q1 -3 6.5 -14.5l12 -24l12 -23.5t7.5 -14l13 -18.5t13 -13.5q1 -1 8.5 -3t10.5 -3h12q2 1 11.5 10.5l14.5 14.5q1 1 6 7l10 12.5l9.5 12t5.5 6.5q2 2 10 9.5t9 9.5q1 3 5 8t8 11l7.5 11l5.5 8q2 -2 9.5 -9t9.5 -10q1 -2 5.5 -9.5
t10 -15.5t10 -15.5t5.5 -9.5l6.5 -10t6.5 -9t9.5 -13t9.5 -13q1 -2 3.5 -7.5t5.5 -11.5l6 -11.5t4 -7.5z" />
    <glyph glyph-name="X" unicode="X" horiz-adv-x="470" 
d="M10 9q3 0 13 -1t12 -2q1 0 3.5 -3t3.5 -3h12q3 1 10 3t9 3q1 1 3.5 3t3.5 4q0 1 2.5 6t3.5 6q1 2 6.5 9.5l12 16l12 16t7.5 9.5q1 1 4.5 6t7.5 11.5l7.5 12l5.5 8.5q3 4 12 18.5l20 32l20 32t12 18.5q1 2 8.5 12l10.5 14q1 1 3 3.5t3 2.5l2.5 0.5t4.5 0.5q1 0 3 -0.5
t3 -0.5q1 -1 5.5 -6t6.5 -7l10.5 -15l18 -26l18 -26l10.5 -15q4 -6 12.5 -17.5l17.5 -23.5l17 -22t10 -13l12.5 -13t13.5 -12q1 -2 5.5 -4t6.5 -3h19q3 2 10.5 9.5t8.5 9.5q1 1 1.5 6t0.5 7q0 7 -1 10t-7 10q-5 8 -14 18t-11 13l-13 16l-16 20l-14.5 18t-7.5 9
q0 2 -8.5 13.5t-10.5 18.5q-1 1 -3.5 6t-2.5 6q-15 22 -31 43t-26 46l-0.5 1t-0.5 2t0.5 2l0.5 1q0 1 2 6t4 7l28 48t29 47q1 1 4 5l6 8l5.5 7.5t3.5 4.5l28.5 41.5l28.5 41.5q1 1 3.5 4.5l5.5 7.5l6 8t4 5l7 13.5l6 11.5q0 1 0.5 6.5t0.5 7.5t-0.5 6.5t-0.5 5.5
q-2 2 -9 6.5t-10 5.5q-1 1 -6 1h-14q-5 0 -6 -1l-7.5 -11l-11.5 -17l-11.5 -17.5l-7.5 -11.5q-1 -2 -5.5 -8.5l-9.5 -14t-10 -14t-6 -7.5l-9.5 -14l-16 -24l-16 -24l-9.5 -14q-2 -2 -7 -8.5l-11 -15l-11.5 -16l-8.5 -11.5l-6 -6h-7l-6 6q-2 2 -6.5 9.5t-6.5 9.5q0 2 -2.5 7
t-3.5 6q-5 6 -13 18l-16 24.5l-14.5 22t-7.5 11.5l-15.5 16l-15.5 16q-3 2 -13 6.5t-13 5.5q0 1 -5 1h-14q-5 0 -6 -1q-6 0 -6 -6q-1 0 -1 -5v-14q0 -5 1 -6l7.5 -11.5l11.5 -17.5l11.5 -17l7.5 -11q0 -1 2.5 -5t6 -8.5t6.5 -8t4 -4.5q1 -2 4.5 -8.5l7.5 -14t8 -14t5 -7.5
t3.5 -5.5l5.5 -10l6 -10.5t4 -6q2 -2 4 -9.5t2 -9.5l0.5 -6t0.5 -9q0 -4 -0.5 -10l-0.5 -6q0 -2 -2 -9.5t-4 -9.5q-19 -42 -42 -78l-47 -74q-2 -3 -6.5 -10.5t-5.5 -8.5l-10.5 -13t-12.5 -16.5l-10.5 -15l-4.5 -6.5q-2 -2 -10 -6.5t-9 -6.5q-3 -2 -8 -7l-5 -5v-42z" />
    <glyph glyph-name="Y" unicode="Y" horiz-adv-x="457" 
d="M199 35q0 -2 0.5 -5.5t0.5 -4.5t2.5 -5.5t3.5 -6.5l7.5 -7.5t11.5 -5.5h32l6 6q2 4 7 11t6 8q1 2 3 11.5l3 14.5q0 2 1 9.5l2 15.5l2 15.5t1 9.5q1 3 2.5 10t4 15.5t4 15.5t2.5 10q2 7 10.5 32.5l18.5 55.5l19.5 59t14.5 43q1 2 3.5 8.5l5.5 14.5t5.5 15.5t4.5 11.5
q1 4 6.5 18t12.5 30t12.5 30t6.5 17q1 2 3.5 9.5t3.5 9.5q1 1 6 13q5 11 6 13t3 9l4 10v6q-2 5 -5 10.5t-8 8.5q-2 1 -6.5 3.5t-6.5 2.5h-6q-2 -1 -6.5 -3t-6.5 -3q-5 -5 -9 -9.5t-10 -12.5q-5 -6 -9.5 -16t-9.5 -19l-7.5 -18l-11.5 -28l-11.5 -29t-7.5 -20q-2 -7 -8 -24
l-13 -36l-13.5 -36t-9.5 -24q-2 -2 -6.5 -9.5t-6.5 -9.5q-2 -3 -6.5 -8t-5.5 -5h-26q-6 3 -13 5t-14 5l-19.5 12l-16.5 10q-1 0 -3 2.5t-3 3.5l-10 13l-12 16l-10.5 14.5t-5.5 7.5t-4.5 7.5l-7.5 14.5t-7.5 16t-5.5 12q-1 1 -3 8.5t-4 10.5q-2 6 -5 16l-6 20.5l-5.5 18.5
t-2.5 9q0 2 -1 6.5t-2 9.5t-2 9.5t-1 5.5v76q0 3 -2.5 10t-3.5 9t-6 4t-7 3h-19l-13 -13q-1 -2 -3 -6.5t-3 -6.5v-10q0 -6 -0.5 -13.5t-0.5 -14.5v-22q0 -8 0.5 -15.5t0.5 -13.5v-6l2 -10t4 -15q1 -4 3 -11t4.5 -14t4 -12.5t1.5 -6.5q1 -5 5.5 -17.5l9.5 -26.5t10 -26.5
t7 -18.5q1 -2 3 -6.5t3 -6.5l8.5 -11.5l11.5 -15.5l11 -14.5t7 -8.5q1 -2 5.5 -6.5l9.5 -9.5t10 -9.5t7 -6.5q1 -1 9 -6t10 -7l6 -6q2 -1 6.5 -3t6.5 -3q1 -1 6.5 -2.5t12 -4t12 -4t7.5 -2.5q1 -1 8 -5.5l10 -6.5l7 -7v-6q0 -2 -2 -8.5l-4.5 -14l-4.5 -14t-2 -7.5
q0 -2 -2 -10.5t-4 -18.5t-4 -18.5t-2 -9.5q-2 -4 -4 -14t-3 -12q0 -2 -3 -9.5t-3 -9.5l-0.5 -3.5t-0.5 -5.5z" />
    <glyph glyph-name="Z" unicode="Z" horiz-adv-x="514" 
d="M9 67q0 -2 0.5 -6l0.5 -4q0 -1 2.5 -6l3.5 -7q1 -1 3.5 -3t3.5 -3l14 -8.5l18 -10.5l16 -9t9 -4h31q7 0 13 -6h70q1 2 5.5 4t6.5 2h51q1 0 6 3t6 4h32q2 0 9.5 3t9.5 3q1 0 7.5 1t14 2t14 2t8.5 1q2 1 13 3.5t13 3.5q6 0 20 1t30.5 2t30.5 2t20 1l13 6q0 1 0.5 6t0.5 7
q0 4 -0.5 11t-0.5 8q-1 2 -6 6.5t-7 6.5q-2 1 -9.5 3.5t-9.5 2.5h-76q-2 0 -8.5 -1t-14 -2t-14 -2t-7.5 -1q-12 -2 -32 -4l-40.5 -4l-36 -3.5t-18.5 -1.5h-9q-7 0 -16.5 -0.5t-19.5 -0.5h-27q-8 0 -18 0.5t-19 0.5h-11q-2 1 -6.5 6t-6.5 7v12q1 2 6 9l7 10q3 5 12 17
l19.5 25l19.5 24.5t12 16.5q2 2 6.5 7.5l9.5 11.5l9.5 11.5t6.5 7.5l10.5 11l18.5 19.5t18 20t10 12.5q6 6 18.5 20l25.5 29.5l24 28.5t14 17l13.5 17l17.5 22l16.5 19.5t9.5 10.5q1 1 6 8.5l11 16.5l12 18t9 14q3 4 8 12.5t10.5 16.5t9.5 14.5t4 7.5t1.5 6t3.5 11l4 12l3 9
l0.5 1t0.5 2t-0.5 2l-0.5 1q-1 4 -3 11t-3 8q-4 7 -13 13t-12 6q-1 0 -9 0.5t-13 0.5t-13 -0.5t-10 -0.5q-6 0 -26 -2.5t-43 -6l-44.5 -6.5t-31.5 -4q-3 0 -13 -3t-12 -3q-6 0 -20 -3t-18 -3q-3 0 -12 -1t-19 -2.5t-19.5 -2.5t-13.5 -1q-5 0 -18.5 -1t-28.5 -2t-28.5 -2
t-19.5 -1q-2 -2 -6.5 -9.5t-5.5 -9.5q-1 0 -1 -4v-11q0 -4 1 -4q0 -2 2.5 -6.5t3.5 -6.5q2 -1 6.5 -3.5t6.5 -2.5h44q3 0 13 1t22 2t22 2t13 1h38q2 1 12.5 3.5t12.5 3.5q3 1 15 3t17 3l23.5 3.5t33.5 5.5t31.5 6t18.5 4h6q4 -1 11.5 -3.5l7.5 -2.5q1 -1 1 -6v-5q0 -2 -1 -2
q-1 -2 -5.5 -12t-6.5 -13l-13 -19.5l-19 -28.5l-19 -28.5t-13 -18.5q-1 -2 -6 -7l-6 -6l-46.5 -57.5t-48.5 -56.5l-25 -25q-3 -3 -11.5 -13l-15.5 -18q-4 -6 -7.5 -9t-3.5 -5l-16 -19l-20.5 -24l-18.5 -21.5t-9 -10.5t-4 -6t-7 -11l-8 -12l-6 -9l-10 -17t-9 -15t-5 -9
l-6 -12l-5.5 -11t-2.5 -6l-0.5 -3.5t-0.5 -5.5z" />
    <glyph glyph-name="bracketleft" unicode="[" horiz-adv-x="360" 
d="M155 619h-20q-2 0 -6.5 -2.5t-6.5 -4.5q-1 0 -3.5 -2.5t-2.5 -3.5q-2 -3 -7 -12.5t-6 -12.5q-2 -3 -3 -9q-3 -8 -5.5 -17t-4.5 -12q-2 -6 -4 -20.5t-2 -17.5v-683q0 -1 1.5 -6t3.5 -11l4 -12t4 -9q0 -1 2 -3.5t4 -3.5l13.5 -7t11.5 -5q4 -1 14 -3l21.5 -4.5t21.5 -4
t13 -1.5h7h30h13h10h31h10q10 3 18.5 6t13.5 7q3 2 10.5 9.5t8.5 9.5v8v11q-1 1 -3.5 6t-3.5 6v19l-38 -19h-88q-2 2 -6.5 4t-6.5 3q-2 0 -12.5 -0.5t-12.5 0.5q-5 0 -6 6q-2 2 -4 6.5t-3 6.5q-2 4 -4 11l-4 14t-3 12.5t-1 6.5v639q0 2 2 9t4 10q0 1 2.5 3t3.5 3
q2 1 6.5 3.5t6.5 2.5q3 2 10.5 4.5t8.5 2.5h50q2 1 4 3l3 3q4 5 11 14.5t8 10.5q0 1 0.5 4.5t0.5 5.5q0 1 -0.5 4.5t-0.5 4.5q-5 1 -18.5 2.5t-29 2.5t-29 1.5t-18.5 0.5h-24z" />
    <glyph glyph-name="backslash" unicode="\" horiz-adv-x="429" 
d="M48 541q0 3 0.5 9l0.5 6q1 2 6 7t7 6l6 0.5t9 0.5t9.5 -0.5l6.5 -0.5q1 0 3 -2.5t4 -4.5t6.5 -9t5.5 -9q1 -3 5.5 -12.5l10 -20.5l10 -20.5t6.5 -10.5q1 -2 6 -9.5t6 -9.5l18 -34l27 -53.5l26.5 -54l17.5 -35.5q0 -1 1.5 -5.5t4 -10l4.5 -10t3 -5.5q0 -1 2.5 -6.5
t3.5 -6.5q1 -2 3.5 -8.5t6 -14t6 -14t3.5 -7.5q1 -3 4.5 -10.5l7.5 -15.5l7.5 -15t5.5 -10q1 -1 3.5 -5.5t6 -10t6 -10t3.5 -5.5q3 -5 7 -13l8 -16l7 -14.5t3 -7.5q1 -3 2.5 -10t2.5 -15t1.5 -15t0.5 -10l-9 -3l-13.5 -4.5t-13.5 -4t-9 -1.5h-7h-5q-4 2 -11 9.5t-8 9.5
q-1 1 -2 6.5t-2 12t-1.5 12t-0.5 7.5q-2 5 -4 14.5t-3 10.5q-1 2 -6 9.5t-6 9.5q-10 17 -17 34.5t-15 35.5q-2 3 -8.5 17l-14 30l-14 30t-7.5 17q-1 2 -3.5 10t-3.5 9q0 1 -2.5 7t-6 12.5l-6.5 12t-4 6.5q-1 3 -5.5 13l-10 22l-10 22t-5.5 13q-1 2 -3.5 6.5t-2.5 5.5
l-29 47.5l-28 47.5q-3 5 -8 14.5t-5 11.5l-0.5 6.5t-0.5 9.5z" />
    <glyph glyph-name="bracketright" unicode="]" horiz-adv-x="418" 
d="M113 -191v5q0 4 1 5q0 1 5 6l7 7q5 0 13.5 6t18.5 6q3 1 15 3.5t16 3.5q2 0 8.5 1t14 2t14 2t8.5 1t11.5 2.5l13.5 3.5q2 1 9.5 3.5t9.5 2.5q2 2 6.5 4t6.5 3q2 2 7 6.5t5 5.5t0.5 6t0.5 8t-0.5 10t-0.5 8q0 4 -2 20t-4 34t-4 33.5t-2 19.5q-1 2 -0.5 7t0.5 6q0 4 -1 21
t-2.5 36t-2.5 36t-1 21v12q0 5 -2 25.5t-4 44t-4 44t-2 25.5q-1 16 -1.5 55t-0.5 84t0.5 84.5t1.5 55.5q-1 2 -3 9t-4 9q-1 2 -3 4l-3 3h-6h-7q-3 0 -10 -1t-15 -2t-15 -2t-10 -2q-2 0 -7 -1l-10 -2t-9.5 -2t-5.5 -1t-6 -3t-6 -3q-4 -2 -14 -4t-12 -2q-3 0 -16.5 -1
t-23.5 -1h-9q0 2 1.5 13t3.5 14q1 2 8 9t11 10q1 1 6 3t7 3q7 3 27.5 9.5l44 13.5l44.5 13t29 8q2 0 11 0.5t11 0.5q5 0 13 -0.5t9 -0.5q5 0 9.5 -3t12.5 -15q11 -11 12.5 -18t3.5 -14v-367q0 -3 1 -11t2 -17l2 -17.5t1 -11.5q1 -5 2 -16.5t2 -24.5l2 -25t1 -16v-19
q0 -5 2 -25.5t4 -44t4 -44t2 -25.5v-6q1 -2 3.5 -9.5t3.5 -9.5v-101l-32 -32q-4 -1 -13.5 -2.5t-21 -3.5t-21 -3.5t-13.5 -2.5q-3 -1 -12 -3l-20 -4.5t-20 -4t-12 -1.5h-34h-35q-2 1 -6.5 3t-6.5 3l-7 7t-5 6q-1 0 -1 3v6z" />
    <glyph glyph-name=".0095" unicode="_" horiz-adv-x="573" 
d="M-27 -118v-2q4 -3 8.5 -8t8.5 -6h25l34 -2q4 -1 23 -1h40q22 0 40.5 -0.5t23.5 -0.5h8l15 -2h16l10 -1h21h33q19 0 37.5 0.5t31.5 1.5q1 0 9.5 0.5t18.5 0.5t19 0.5t12 0.5t14.5 0.5t24.5 0.5q14 0 26 0.5t15 0.5q5 -1 20 0.5t19 2.5q7 2 22.5 5t19.5 5q1 0 5.5 4.5
l6.5 6.5v4v2l-26 20q-2 1 -8.5 3.5t-10.5 3.5l-19 1l-20 1h-12q-8 0 -18 -1t-18.5 -1.5t-9.5 -0.5q-4 0 -16 -0.5t-25.5 -1t-25.5 -0.5q-11 0 -14 1q-25 -1 -66 -0.5l-82 1t-75 0.5h-46h-13l-18 2l-17 1h-10q-11 2 -21 -5q-2 -1 -6.5 -2.5t-4.5 -2.5q-5 -2 -12.5 -13
t-11.5 -16z" />
    <glyph glyph-name=".0096" unicode="`" 
d="M160 772v13q1 1 3 3.5t4 2.5l3.5 0.5t5.5 0.5t5.5 -0.5t4.5 -0.5q5 0 9 -3.5t9 -8.5l26 -26q2 -2 8.5 -7l15 -11l16 -11.5l11.5 -8.5q3 0 14 -8.5t17 -10.5q6 -3 13.5 -5.5t18.5 -6.5q2 -1 12.5 -3.5t12.5 -3.5t7 -5.5t6 -6.5q0 -1 0.5 -6.5t0.5 -7.5t-0.5 -6.5
t-0.5 -5.5q-1 -1 -8 -3t-11 -3h-13q-32 0 -57 13q-1 0 -6 2.5t-6 3.5q-2 0 -6.5 1.5t-10 4l-10 4.5t-5.5 3q-2 1 -9.5 9t-9.5 10q-2 1 -9.5 6t-9.5 6q-3 2 -13 12t-12 14q-2 2 -9.5 11.5t-9.5 13.5q-2 2 -4.5 6.5t-2.5 6.5v12z" />
    <glyph glyph-name="a" unicode="a" horiz-adv-x="409" 
d="M253 41q1 1 6 -1.5t7 -4.5q1 -2 6 -9.5t6 -9.5q6 -6 7 -6q2 -1 12.5 -3.5t12.5 -3.5q31 -2 52.5 -1t34 3.5t17.5 5l5 2.5q9 0 18 13t12.5 27.5t-2 23t-25.5 -0.5q-21 -9 -38.5 -9.5t-30 2t-19 6.5t-5.5 4q-5 0 -6 7q-2 1 -4 5.5t-3 6.5t-3 12t-3 14q0 1 -1 6.5l-2 11.5
l-2 11.5t-1 7.5v7q0 1 1 7.5t2 14t2 14t1 8.5v82q0 4 1 22t2 38.5t2 38t1 21.5v19q0 2 -2.5 7t-3.5 6t-10.5 6t-14.5 7q-2 1 -9.5 3t-9.5 3q-2 0 -6.5 2l-10 4.5l-10 4.5t-5.5 2t-11 0.5t-15 0.5t-14.5 -0.5t-10.5 -0.5l-7 -5l-11 -8q-5 -3 -14.5 -10.5t-11.5 -8.5
l-6.5 -6.5l-9.5 -9.5l-9.5 -9.5t-5.5 -6.5q-5 -5 -9.5 -13.5t-9.5 -13.5l-11 -20.5l-8 -15.5l-7 -13.5l-6 -11.5q-2 -2 -3 -9l-5 -19.5t-5 -15.5l-3.5 -20.5t-2.5 -17.5v-7q0 -6 -0.5 -13.5t-0.5 -15.5v-25q0 -8 0.5 -15.5t0.5 -13.5v-5q0 -1 2 -10.5t4 -14.5
q8 -27 22.5 -49.5l28.5 -45.5q1 -2 3 -7t3 -6q4 -2 16 -7t16 -6q1 0 7 -0.5t14 -0.5t15.5 -0.5t11.5 -0.5q8 0 20.5 1t13.5 1zM101 155v82q0 2 2.5 14t4.5 18q2 10 5 22t7 22q1 2 3.5 6.5t3.5 6.5q3 5 9 14l12 18l11 16t6 9l25 25q1 2 5.5 4t6.5 2q1 1 3 1h8q2 0 2 -1
q2 -1 7 -5.5t6 -6.5v-57q0 -2 -1 -9.5t-2.5 -16t-2.5 -16t-1 -9.5v-76q0 -2 1 -8t2.5 -13.5t2.5 -14t1 -8.5v-38q0 -2 -2.5 -7t-6 -11l-6.5 -11.5t-4 -8.5l-11.5 -12t-14.5 -13q-1 -1 -5.5 -3.5t-6.5 -2.5l-3 -1q-1 0 -2 0.5l-1 0.5q-2 0 -7 2.5t-6 3.5q-5 3 -14 13t-11 12
q-1 1 -3.5 6l-5.5 11l-6 12t-4 9q-2 3 -4.5 10t-2.5 9z" />
    <glyph glyph-name="b" unicode="b" horiz-adv-x="305" 
d="M7 91q0 -4 1 -17t2 -17q1 -2 5.5 -12t7.5 -13q1 -2 5.5 -6.5l6.5 -6.5q3 -2 13 -9.5t13 -9.5q3 0 15 -0.5t20 -0.5h20q10 0 20.5 0.5t12.5 0.5q1 0 7.5 3l14.5 7l16 8t13 7q2 2 11.5 9l13.5 10q10 8 17 18t15 20q2 4 7 11t5 8q1 2 3.5 9.5t3.5 9.5q0 1 3 6.5t3 6.5
q1 3 3.5 9t4.5 12t3.5 11t1.5 6v4q0 5 0.5 11t0.5 12v11q0 8 -0.5 22t-0.5 16q-1 2 -5.5 16t-7.5 22q-1 2 -3 6.5t-3 5.5l-12.5 13t-13.5 13q-1 0 -5.5 2.5t-6.5 3.5l-9 3t-12.5 4.5t-11.5 4l-5 1.5h-12q-18 0 -33.5 -5.5t-30.5 -13.5q-2 -1 -9.5 -6.5t-9.5 -6.5t-6.5 -3.5
t-6.5 -2.5l-1 -0.5t-2 -0.5t-2 0.5l-1 0.5q-1 1 -3 5.5t-3 6.5q-2 3 -4 13t-3 13v234q0 2 0.5 11t1.5 20t2.5 21.5t2.5 16.5q0 1 1 6.5t2 12t2 12t1 7.5v19q0 2 -2.5 6.5t-3.5 6.5l-13 13h-19q-2 -1 -6.5 -3t-6.5 -4l-2.5 -5l-3.5 -7l-3.5 -10t-2.5 -9q-2 -5 -4 -19t-3 -19
q0 -6 -1 -17l-2 -22t-2 -20t-1 -11v-17q0 -14 -0.5 -32.5t-0.5 -38.5v-59q0 -18 0.5 -35t0.5 -31v-15q0 -11 1.5 -38.5t4 -59t4.5 -59.5t3 -39q1 -3 8.5 -10t10.5 -9l5 -0.5t7 -0.5q3 0 7.5 0.5t5.5 0.5q2 1 9.5 8.5t9.5 10.5q1 3 6.5 14.5l12 24l12 23.5t7.5 14q0 1 2.5 3
t3.5 3q4 3 10 8.5l12 10.5l11 9l5 4q2 1 9 3.5t10 2.5l2.5 0.5t4.5 0.5q1 0 3.5 -0.5l2.5 -0.5q2 0 6.5 -2.5t5.5 -3.5q2 -2 7 -9.5t6 -9.5q0 -5 0.5 -19t0.5 -19q0 -8 -0.5 -22t-0.5 -16t-2 -9t-4 -10l-19 -38q-2 -4 -7 -11t-6 -8q-2 -2 -12.5 -6.5t-12.5 -5.5t-6.5 -7
t-6.5 -6q-6 -2 -19 -2t-19 2q1 -2 -1.5 -7t-4.5 -6h-25q-1 0 -6 2.5t-7 4.5q-2 1 -9.5 6t-9.5 6q-2 2 -7 4t-6 3q-2 0 -14 1t-14 1z" />
    <glyph glyph-name="c" unicode="c" horiz-adv-x="219" 
d="M248 78q5 5 5 14q0 7 -2.5 14.5t-7 12t-11.5 4.5q-6 0 -15 -7q-4 -3 -14.5 -11.5l-22 -17t-21.5 -14t-13 -3.5q-1 -1 -6 -1h-14q-5 0 -6 1q-2 0 -11 5t-14 7l-3 3t-3 4q-5 5 -11 19t-8 18t-4 13.5t-2 12.5l-0.5 5t-0.5 11v48q0 7 0.5 12t0.5 6q0 2 0.5 8t1.5 13l2 13.5
t2 9.5q0 2 2.5 9.5t3.5 9.5q2 4 6 13l8 18l7.5 16.5t4.5 9.5q0 2 6.5 7.5t11.5 5.5q2 0 10 -0.5t9 0.5q2 0 6.5 2.5t6.5 3.5q1 1 3.5 3t2.5 3q2 2 4.5 7t2.5 6v25q0 2 -2.5 6.5t-4.5 6.5q0 1 -2.5 3t-3.5 3l-11 8t-8 5t-8 0.5t-11 0.5t-11 -0.5t-8 -0.5q-2 -1 -12 -8
t-13 -11q-1 -1 -8.5 -13t-10.5 -19q-8 -14 -14 -28t-11 -28q-3 -5 -7.5 -20t-8.5 -26q-2 -8 -3 -11t-4 -13q-1 -10 -3 -13q0 -6 -2.5 -20t-2.5 -18v-12q0 -6 1 -17t1.5 -22t1.5 -20t1 -11q1 -2 3 -12t4 -13q2 -5 6 -17t6 -15q1 -1 6 -8t7 -11q4 -5 11 -14.5t8 -10.5t8 -6
t11 -7q5 -2 14.5 -7t10.5 -5q1 -1 10 -1h30q10 0 11 1q2 1 9 3l15 4.5t15.5 5.5t10.5 6q1 0 9 7l17 15l17 15.5t9 8.5z" />
    <glyph glyph-name="d" unicode="d" horiz-adv-x="394" 
d="M10 177v-13q0 -1 1 -6.5t2 -12l2 -12.5t1 -7q0 -2 1 -8t2.5 -13.5t2.5 -14t1 -8.5l3 -14.5t3 -10.5q2 -3 8 -9.5l13 -14t13.5 -13.5t9.5 -7q1 -1 6 -2.5t11 -3.5l12 -4l9 -3h25q2 0 12 2.5l14 3.5q2 1 6.5 3t5.5 4q2 1 8.5 5.5l14 10l14 10t8.5 5.5q1 1 9 3.5t10 3.5
t9.5 5.5t9.5 6.5q2 -3 12 -13t13 -12q3 -3 13 -10t12 -9q6 -4 20.5 -11t17.5 -8h25l14.5 3t11.5 3l19 19v13q-1 1 -3 3.5t-4 2.5q-2 1 -9 3.5l-10 3.5q-1 0 -5.5 1t-10 2t-10 2t-5.5 1q-2 1 -6.5 6t-6.5 7q-1 0 -6 2.5l-7 3.5l-6.5 6.5t-5.5 6.5q-1 1 -6 10.5t-7 14.5
q-2 4 -5 11l-6 14l-5.5 12.5t-2.5 6.5q-2 5 -4 17t-2 15v430q0 2 -7 9.5t-12 9.5h-25q-1 -1 -3.5 -3t-3.5 -4q-1 -1 -3 -5.5t-3 -6.5l-3 -9t-4.5 -12.5t-4 -11.5l-1.5 -5q0 -3 -1.5 -15t-3.5 -26l-4 -27.5l-3 -20.5q-1 -5 -2.5 -15.5t-2.5 -22.5t-1.5 -23t-0.5 -15
q0 -1 -2.5 -3.5t-3.5 -2.5q-3 0 -16 -3t-16 -3l-11.5 -6l-13.5 -7l-8.5 -5.5l-12 -7.5t-11.5 -7.5t-6 -4.5l-19 -19q-1 -1 -4 -6t-7 -11l-8 -12l-6 -9q-1 -2 -3 -6.5t-3 -6.5q-2 -3 -6.5 -15t-6.5 -16l-3.5 -10.5t-2.5 -8.5q-1 -2 -3 -14.5t-4 -17.5q0 -3 -1 -9l-2 -12
t-2 -11t-1 -6zM79 164v14q0 5 1 5q0 2 2 14t4 18q1 5 3.5 14t2.5 11q2 5 6.5 17.5t6.5 14.5t9 12t10 13q2 2 6.5 7t9.5 10l9 9l6 6q2 1 6.5 3.5t6.5 2.5q3 1 10.5 1.5t10.5 0.5q0 -5 1.5 -16t4 -23.5t4 -24t1.5 -17.5q0 -1 1 -6t2 -11l2 -11.5t1 -6.5v-19q0 -2 -1.5 -8.5
t-4 -14.5t-4.5 -15.5l-3 -11.5q-2 -8 -6.5 -22t-5.5 -16q-1 -1 -2 -2.5t-3 -3.5l-11 -14t-10 -12q-3 -2 -12 -6t-19 -6q0 -1 -2 -1h-1q-3 0 -4 1q-5 0 -11.5 5.5t-6.5 6.5q-1 1 -3.5 8.5l-3.5 10.5q-1 2 -3 12t-3 13q-2 6 -4 18t-2 14q-1 1 -1 6z" />
    <glyph glyph-name="e" unicode="e" horiz-adv-x="312" 
d="M15 218q2 -42 17 -87t53 -99q1 -2 9 -7t10 -6q0 -1 2.5 -3.5t3.5 -2.5q2 -1 14 -3t18 -4q4 0 11 -1l14 -2t12.5 -2t6.5 -1h26q22 -1 42.5 2t37 7.5t27 8.5t13.5 6l6 6t12 11l7 7t3 11q0 9 3 12q3 5 0 8q1 1 -2 4l-6 6q-2 0 -2 -1h-17q-5 -1 -13 -4l-17.5 -6.5l-18 -6.5
t-13.5 -4q-8 -3 -31 -3.5t-49 -0.5h-21l-12 6t-13 7t-13 12t-12 13q-3 4 -10 16t-9 16l19 19q1 1 6.5 6t12 10l12 9.5t7.5 5.5l10.5 10t15.5 15.5l15 15.5t9 10q2 2 6.5 9l6.5 10l5.5 11.5l7.5 15.5l7.5 15l4.5 9q2 2 4 12t2 13q1 1 1 11v30q0 9 -1 9q0 3 -5 13t-7 13
q-1 1 -11 8.5t-15 10.5q-1 1 -5.5 3t-6.5 3q-3 1 -13 3.5t-12 2.5q-1 0 -3 0.5t-3 0.5q-2 0 -4.5 -0.5l-2.5 -0.5q-5 0 -12 -1l-14 -2t-12.5 -2l-5.5 -1q-1 0 -5 -3l-9 -7l-10 -8t-8 -7l-19 -19q-1 -2 -4.5 -7l-7.5 -11l-8 -11.5t-5 -8.5q-2 -2 -6.5 -12t-6.5 -13
q-1 -3 -6 -15l-7 -17q-1 -2 -3 -9.5t-3 -9.5v-54zM78 228v31q0 2 1.5 7t4 11t4.5 11.5t3 8.5q2 5 9.5 16.5t9.5 15.5q1 2 5.5 6.5l10 10t10 9.5t6.5 6q3 2 12.5 7t12.5 5q5 0 13 -6.5t12 -12.5q0 -1 -2 -13t-4 -18q-1 -2 -3 -9.5t-3 -9.5q-12 -29 -31.5 -50.5t-44.5 -38.5
q-2 -2 -7 -4t-6 -2q-5 0 -6 6q-2 2 -4 6.5t-3 6.5z" />
    <glyph glyph-name="f" unicode="f" horiz-adv-x="299" 
d="M16 266q0 -8 0.5 -27.5t1.5 -42t2.5 -42.5t2.5 -27q0 -2 1 -10.5t2 -18.5t2 -18.5t1 -9.5q0 -6 1 -25t1 -33v-13q4 0 17.5 0.5t18.5 0.5q1 0 6 2.5l7 3.5q1 1 3 3.5t3 3.5q2 2 4 6.5t2 5.5t0.5 8.5t0.5 11.5q0 42 -3.5 81t-3.5 79v29q0 2 2.5 6.5t3.5 6.5q3 0 9 1t13.5 2
t13.5 2t9 1q1 1 8 3t11 4q1 1 6 3l10.5 4l10 3.5l4.5 1.5q5 2 15 7t11 6l0.5 2t0.5 4t-0.5 4t-0.5 3l-19 19h-64q-2 0 -15.5 -3.5t-15.5 -3.5h-7q-1 2 -3 6.5t-3 6.5v13q2 36 5 73t14 72q8 29 21 55.5t36 46.5q2 1 9 5.5l10 6.5q2 2 7 4.5t6 2.5h38q1 -1 5.5 -6t6.5 -7
q1 -1 3.5 -8.5l3.5 -10.5q0 -3 3 -16t3 -16q0 -1 2.5 -3.5t3.5 -2.5t3 -0.5t4 -0.5t4 0.5l2 0.5q1 1 3.5 6t2.5 7q1 1 2 6.5l2 11.5l2 11.5t1 8.5v25l-6 12t-7 13l-13 13q-2 2 -11.5 6.5l-13.5 6.5l-10 3.5t-9 2.5h-19q-2 0 -11.5 -2.5l-13.5 -3.5q-10 -3 -19 -6t-13 -7
l-32 -32q-2 -3 -7.5 -10l-11.5 -15l-11.5 -15t-7.5 -10q-2 -2 -6.5 -12t-5.5 -14q-1 -3 -4 -11t-6 -17t-5.5 -17.5t-3.5 -11.5q-1 -2 -3.5 -14l-3.5 -17q0 -2 -1 -9.5t-2 -16t-2 -16t-1 -9.5q-1 -5 -3 -16t-3.5 -23t-3.5 -22.5t-3 -14.5q0 -3 -3 -13t-3 -12v-19
q0 -2 2.5 -6.5t3.5 -6.5z" />
    <glyph glyph-name="g" unicode="g" horiz-adv-x="321" 
d="M31 -153q0 -3 1 -3q2 -8 6.5 -22t5.5 -16t5 -7t9 -10q13 -14 18 -15q2 -1 11.5 -3.5t13.5 -2.5h57q7 0 15 4t10 6q7 5 15 12t11 10q2 2 7.5 9.5t11.5 13.5q4 5 9 13.5t10 13.5l6 11.5t8 16l7 15t4 8.5q2 4 5 13l6 18l5.5 16.5t2.5 9.5q1 7 3 26.5t4.5 41.5t4 41.5
t1.5 27.5q2 35 0.5 45t-0.5 12q0 34 -1 56t-2.5 34.5t-2.5 17.5t-1 6q-1 6 -3 21t-4 32.5t-3.5 32.5t-1.5 21q-2 3 -7 13t-9 17q-3 8 -5 10l-5 5h-31q-1 0 -3 -2.5t-4 -4.5q-1 -2 -6 -9.5t-6 -9.5q-2 -1 -6.5 -3.5t-6.5 -2.5q-2 1 -7.5 3.5l-11.5 5.5l-11.5 6t-7.5 4
l-5.5 0.5t-8.5 0.5t-10 -0.5t-8 -0.5q-3 -1 -13 -3t-12 -3q-1 -1 -10.5 -8t-14.5 -11l-3.5 -3.5t-2.5 -3.5q-2 -2 -6.5 -9l-6.5 -10q-2 -2 -4 -6.5t-2 -5.5q-2 -4 -4.5 -14t-2.5 -12q0 -1 -0.5 -13t-1.5 -28l-2 -33t-2 -27v-6q1 -3 3 -15t3 -17q2 -5 4 -14.5t3 -10.5
q1 -3 4.5 -12l7.5 -19l7.5 -19t5.5 -13l19 -38q5 -15 10.5 -23t10 -11t7.5 -3.5l3 -0.5q1 0 6 -2t10.5 -4.5l10 -4.5t5.5 -2q3 0 11 -0.5t17 -1.5t17.5 -1.5t11.5 -0.5v-32q0 -2 -2.5 -11.5l-3.5 -13.5q-7 -23 -15.5 -43t-22.5 -39q-1 -1 -3 -3.5t-4 -3.5l-14 -11t-11 -8
t-9 -3t-10 -3h-13q-6 3 -9 4t-8 9l-11.5 18.5t-8.5 12.5q-2 1 -6.5 3.5t-6.5 3.5h-13q-1 -1 -6.5 -8t-5.5 -18q-1 0 -1 -3zM106 221v26q0 8 0.5 16.5t0.5 14.5v7q0 3 1.5 10t4 15l4.5 15t3 10q2 2 6.5 4t6.5 3h19q3 -2 15 -9t16 -10l26 -26l2.5 -5l3.5 -7q2 -4 4 -11t2 -8
v-152q0 -2 -5 -11.5l-7 -13.5l-13 -13q-2 -1 -6.5 -3.5t-6.5 -2.5l-2.5 -0.5t-4.5 -0.5q-1 0 -3 0.5l-2 0.5q-2 1 -9 8t-10 11q-5 5 -10.5 13.5t-7.5 13.5q-3 8 -7.5 17.5t-6.5 12.5l-3 9t-4.5 12t-4 11t-1.5 6v6q0 6 -0.5 14.5t-0.5 16.5z" />
    <glyph glyph-name="h" unicode="h" horiz-adv-x="292" 
d="M219 13q0 -2 2.5 -4t3.5 -3q2 -1 9 -3t10 -3h6q3 2 13 6.5t12 6.5q2 0 4 2.5t3 3.5v158q0 3 -1 12t-2 19t-2 19t-2 13q0 2 -1.5 9.5t-3.5 16t-4 16t-3 9.5l-6 12t-7 13q-2 5 -9.5 14t-9.5 11q-2 1 -7.5 4.5l-11.5 7.5l-11 7.5l-8 5.5q-2 2 -9.5 4t-9.5 3h-25
q-5 -1 -17.5 -3t-14.5 -4q-1 0 -10.5 -7t-14.5 -11q-1 -1 -3 -4t-3 -3h-13q0 3 -1 11t-2 17l-2 17.5t-1 11.5q0 10 -0.5 35t-0.5 53q0 29 0.5 54t0.5 35q0 3 -2.5 13t-3.5 12l-6.5 10t-6.5 9t-6.5 4t-6.5 3h-19q-6 -2 -6 -7v-322q1 -6 2.5 -20t4 -30.5t4 -30.5t2.5 -20
q0 -3 1 -13t2 -22t2 -22t1 -13t1 -9l2 -12t2 -11t1 -6q2 -3 9.5 -10t9.5 -8q1 -1 7 -1h22q8 0 9 1q4 0 6 6q2 2 4 6l3 6q0 7 0.5 25t1.5 38.5t2 38.5t2 25q0 1 1.5 7l3.5 14l4 16t4 13q2 10 6 18.5t6 13.5q2 2 9.5 6.5t9.5 6.5h7q5 -2 14.5 -7t10.5 -6q2 -2 6.5 -11.5
l6.5 -13.5l3 -11.5l4 -15.5t3.5 -15t1.5 -9q0 -3 1 -20t2.5 -38t2.5 -42t1 -33v-75z" />
    <glyph glyph-name="i" unicode="i" horiz-adv-x="208" 
d="M18 127l4 -12q12 -42 30.5 -62.5t42.5 -33.5q1 -4 9 -5t10 -1q0 -1 7 -1h22q8 0 8 1q2 0 9 2t10 4l7 3.5t6 2.5l19 19q1 1 3 8t3 11q2 5 4.5 14.5t2.5 10.5v51q-1 1 -3 3.5t-4 2.5q0 1 -3 1h-7q-2 0 -2 -1q-2 -1 -9.5 -8t-9.5 -11q-1 -1 -3.5 -5.5t-6 -10t-6 -10
t-3.5 -5.5q-2 -4 -8 -7t-11 -6h-13q-2 1 -6.5 6t-5.5 7q-2 3 -6 10.5l-8 15.5l-7.5 15l-4.5 9l-1 8l-1 13q0 3 1 15t1.5 25t1.5 24.5t1 14.5v7q0 8 -0.5 22.5t-2.5 22.5q-3 24 -7.5 46t-17.5 43l-6 6q-2 1 -6.5 3.5t-6.5 2.5l-2.5 0.5t-3.5 0.5q-2 0 -4 -0.5t-3 -0.5
q-7 0 -10.5 -6l-7.5 -13q0 -5 -3 -17t-3 -14v-133q0 -6 1 -19t2.5 -27t3.5 -26t4 -16zM132 753v-14q0 -5 1 -6q0 -5 6 -6q2 -2 6.5 -4t5.5 -3h19q2 1 7 3t6 4q1 1 3 5.5t3 6.5q0 1 0.5 2l0.5 1q0 1 -0.5 2.5l-0.5 1.5q-1 3 -3 10t-3 9q-1 1 -3 3.5t-3 2.5t-7.5 0.5t-9.5 0.5
t-8.5 -0.5t-6.5 -0.5q-2 -1 -6.5 -6t-5.5 -7q-1 0 -1 -5z" />
    <glyph glyph-name="j" unicode="j" horiz-adv-x="252" 
d="M-79 -142v-18l3 -14.5t3 -11.5q1 -1 8 -10.5t11 -14.5q6 -6 7 -6q5 -2 19 -7t19 -6h17q3 0 9 1l12 2t11 2t6 1l26 13q6 3 18 11t13 8q2 1 6.5 5.5l9.5 9.5t9.5 10t6.5 7q1 1 5 6.5l9.5 12.5t10 14t6.5 11q4 5 11.5 17t7.5 14l4 11.5t6.5 17.5t6 17t2.5 11q1 2 3 15.5
t5 31l6 34.5t5 26q1 4 2.5 12t2.5 16t1.5 14t0.5 8v72q0 48 -2 91.5t-11 89.5q-1 3 -3 13t-3 12l-5 14.5l-8 24t-8 23.5t-5 14v10q0 8 3 15t7 13t7 13t3 15v5q0 4 -1 5q0 6 -6 13t-13 12l-2 0.5t-3 0.5q-2 0 -4.5 -0.5l-2.5 -0.5q-2 0 -6.5 -2.5t-6.5 -3.5l-19 -19
q-3 -4 -7.5 -11t-4.5 -8v-95q0 -1 2 -8t4 -11q0 -2 6.5 -12t6.5 -13q0 -1 1 -6t2 -11l2 -12t1 -9q1 -9 3 -25l4 -32l3.5 -29t1.5 -15q1 -1 1 -12v-32q0 -12 -1 -13q0 -2 -1 -9.5l-2 -15.5l-2 -15.5t-1 -9.5q0 -5 -1.5 -24.5t-3.5 -42t-4 -42.5t-3 -24q0 -2 -3 -10.5
t-6.5 -17.5t-6.5 -17.5t-3 -10.5q-1 -2 -3.5 -12.5t-3.5 -12.5t-5.5 -12t-6.5 -14q-2 -2 -6.5 -9.5t-6.5 -9.5q-3 -3 -8 -9l-10 -12l-9 -11t-5 -6q-2 -1 -11 -8.5t-14 -9.5q-5 -3 -13.5 -7t-18.5 -6h-11q-2 0 -6.5 2.5t-6.5 3.5q-3 2 -10 9.5t-9 9.5q0 1 -1.5 5t-3.5 8.5
t-4 8t-3 3.5q-1 1 -4 1h-11q-4 0 -4 -1q-2 0 -7.5 -6t-5.5 -13z" />
    <glyph glyph-name="k" unicode="k" horiz-adv-x="375" 
d="M434 91l-51 19l-20 -20q-2 -3 -7.5 -7t-10.5 -4q-2 -1 -14 -3.5l-17 -3.5h-7q-3 1 -13 3.5t-12 3.5q-1 0 -6 2t-7 4q-4 2 -11 6t-14 8.5t-12.5 7.5t-6.5 3l-19 19q-2 2 -6.5 9.5t-6.5 9.5q-2 5 -6.5 14l-5.5 11t-3.5 14.5l-3.5 17.5v13l3.5 17t3.5 14q1 4 5.5 14t6.5 12
l4.5 4.5l7.5 7.5t8 7.5t6 5.5q1 1 8.5 6l10.5 7q1 1 7 4.5l13.5 7.5l14.5 8t9 5l18 13t14 12q0 1 0.5 4.5t0.5 5.5t-0.5 5.5l-0.5 3.5q-2 3 -11.5 12.5t-14.5 13.5q-3 2 -13 7t-12 5q-1 1 -15 1h-40q-14 0 -15 -1q-3 0 -9 -2.5t-12.5 -6t-13 -6.5t-9.5 -4q-3 -2 -9.5 -8
l-13.5 -13l-13 -13.5t-8 -9.5q-1 0 -2 -0.5l-1 -0.5q-1 0 -2 0.5l-1 0.5q-2 2 -4 6.5t-3 6.5q0 5 -1 18.5t-2 28.5t-2 28.5t-1 19.5q0 5 -1 25.5t-2 44t-2 44t-1 25.5q0 2 -1 7t-2 11l-2 11.5t-2 8.5q0 2 -2.5 6.5t-3.5 5.5q-3 4 -10 11t-9 8q0 1 -4 1h-12q-3 0 -3 -1
q-3 -2 -10 -9t-9 -10l-0.5 -3t-0.5 -5t0.5 -6t0.5 -5q0 -2 2.5 -6.5t3.5 -5.5q0 -11 1 -39t2.5 -59.5t2.5 -59.5t1 -38v-13l3 -37l4.5 -57l5 -67l5 -67l4.5 -57.5l3 -37.5q1 -2 3 -6.5t3 -5.5q2 -3 7 -8t6 -5h51q0 5 2 19t4 19q0 1 2.5 3.5t3.5 2.5l76 -76q17 0 35 -9.5
t35 -9.5h6q6 0 13 -0.5t14 -0.5h20q6 0 13 0.5t13 0.5h9q4 2 16 9.5t16 9.5q7 7 12 9.5t9.5 7t8.5 13.5t8 27z" />
    <glyph glyph-name="l" unicode="l" horiz-adv-x="206" 
d="M10 361v-63q0 -3 1 -15.5t2 -26.5t2 -26t1 -15v-19q1 -4 3 -15t3.5 -23t3.5 -23t3 -15q1 -3 3 -10t3.5 -15t3.5 -15t3 -10q0 -2 2.5 -7t3.5 -6q1 -2 3 -9.5t3 -9.5q2 -2 9 -9.5t10 -9.5q1 -1 6 -3t7 -3q3 -1 8.5 -3t11.5 -4.5t11 -4t7 -1.5h13q2 0 9 2.5l10 3.5
q2 1 6 3.5t6 3.5q3 2 10.5 6.5t8.5 5.5q3 2 10 9.5t9 9.5q1 2 3.5 6.5t3.5 6.5v6q-2 2 -6.5 4t-6.5 3h-19q-2 -1 -9.5 -3.5t-9.5 -3.5h-32l-2.5 2.5t-3.5 4.5q-18 24 -25 50q-2 4 -4 12.5l-4 16.5l-3.5 14.5t-1.5 7.5q0 4 -1 16t-2 26.5t-2 27.5t-1 19v9q0 9 -0.5 20
t-0.5 22v36q0 11 0.5 22.5t0.5 19.5v10q0 2 0.5 13.5t1.5 25.5l2 28t2 22q0 2 1 11.5t2 20t2 20t1 11.5t0.5 15t0.5 20q0 4 -0.5 17t-0.5 18q0 2 -2.5 6.5t-3.5 5.5l-13 13q-1 1 -5.5 3.5t-6.5 2.5q-1 0 -2 0.5t-2 0.5t-2 -0.5l-1 -0.5l-20 -20q-3 -2 -7 -7.5t-4 -10.5v-101
q0 -2 -1 -10.5t-2.5 -18t-2.5 -18t-1 -10.5q0 -7 -1 -21l-2 -29t-2 -28t-1 -17z" />
    <glyph glyph-name="m" unicode="m" horiz-adv-x="535" 
d="M16 82l32 -69q0 -1 2.5 -3.5l3.5 -3.5l7 -3.5t6 -2.5h31q2 0 7 2.5t6 3.5q1 2 3.5 6.5t2.5 6.5l1 4.5t2 10.5l2 12.5t2 10.5q0 1 1 7.5t2 14t2 14t1 8.5q0 6 3 20t3 18q6 30 11.5 60.5t14.5 59.5q6 22 15 43.5t23 38.5q2 3 6.5 8t5.5 5t4.5 0.5t5.5 0.5t5.5 -0.5
l3.5 -0.5q1 0 3 -5t4 -8q1 -2 3 -9t3 -10q2 -5 4 -14.5t2 -10.5v-171q0 -19 -8 -28.5t-13.5 -18t-2.5 -20.5t24 -34q2 -1 6.5 -3.5t6.5 -2.5q1 0 6 -0.5t7 -0.5q3 0 7.5 0.5l4.5 0.5q1 0 6 5t7 8q1 1 3 5.5t3 6.5l3 9t4.5 12t4 11t1.5 6t1.5 10.5l3.5 21.5l4 24t3 20
q0 1 1 7.5t2.5 14t2.5 14t1 8.5t3 9.5t3 9.5q0 3 3 16t3 16q1 4 3 11t4.5 14t4 12.5t1.5 6.5q1 3 4 10t7 15.5t8 15.5t6 10l6.5 6.5t6.5 5.5q0 1 2 1h8q2 0 3 -1q8 -4 11.5 -12t7.5 -19q0 -3 1 -9l2 -12t2 -11t1 -6v-158q0 -2 -1 -8.5t-2 -14t-2 -14t-1 -8.5q-1 -1 -1 -11
v-27q0 -11 1 -12q0 -1 2.5 -3.5t3.5 -2.5q2 -2 6.5 -4t5.5 -3h13q2 1 6.5 3t6.5 4t9.5 9t9.5 10q2 2 6.5 9t5.5 10q1 5 2.5 18.5t2.5 28.5t1.5 28.5t0.5 18.5v70q-1 3 -3 17.5t-4 20.5q0 2 -3 9.5t-3 9.5q0 1 -1 7.5t-2 14t-2 14t-1 8.5q-2 5 -5 14t-6 17q-1 5 -2 7t-11 16
q-5 8 -8.5 13t-5.5 9q-4 5 -9 7.5t-10 5.5l-10.5 3.5t-8.5 2.5h-19q-11 -3 -19.5 -4.5t-12.5 -6.5q-7 -4 -15 -11t-10 -10q-2 -2 -7 -8.5l-10.5 -13.5t-9.5 -13t-5 -9l-6.5 6.5t-5.5 6.5q-2 1 -6.5 9t-6.5 10l-38 38q-2 1 -11.5 3.5t-13.5 2.5q-1 0 -8.5 -2.5l-10.5 -3.5
q-3 -2 -13 -6.5t-12 -6.5q-4 -2 -11 -7t-8 -6l-5 -5l-11.5 -13.5t-9.5 -12.5q-2 -3 -6 -8l-8 -10.5t-7 -11t-4 -8.5q0 5 -1 15.5t-2 22.5t-2 22.5t-1 15.5q-1 2 -3 9.5t-4 9.5q-2 3 -11.5 13t-13.5 12q-2 -1 -6.5 -3t-5.5 -4q-7 -4 -13 -12t-6 -13l-19 -253q-8 -8 -10 -19
t-2 -23t2 -22.5t3 -17.5z" />
    <glyph glyph-name="n" unicode="n" horiz-adv-x="344" 
d="M25 60l4 -51q9 -5 18 -12.5t20 -11.5h6q2 1 7 3t6 3l19 18q0 3 -0.5 10t-0.5 15q0 9 0.5 16t0.5 10q0 2 1 10t2 18.5t2 20t1 14.5q0 3 1 10t2.5 14t2.5 12.5t1 7.5q0 3 1.5 10.5t3.5 15.5l4 15.5t3 9.5q2 7 6 19l8 24t7.5 21.5t4.5 11.5t4 7l6.5 11t7.5 11.5t7 8.5l38 38
h12q2 0 6.5 -2.5t6.5 -3.5l13 -13q1 -3 3 -10t4 -15t3.5 -15.5t1.5 -10.5q0 -7 1 -25t1 -33v-33q0 -17 -1 -34.5t-1 -19.5q0 -3 -2.5 -15t-6 -26l-6.5 -26t-4 -15q-1 -5 -3 -17.5t-3 -14.5v-13q0 -1 2.5 -3t3.5 -3q2 -2 7 -4t6 -2t5.5 -0.5t7.5 -0.5q2 0 7 0.5l5 0.5
q4 0 11 2.5t8 3.5t3.5 8t3.5 11l3 14.5l4 19.5t3.5 18.5t1.5 10.5q0 3 1 15t2.5 26t2.5 26t1 15q0 25 1.5 43.5t1 37.5t-5 41.5t-16.5 55.5q-1 2 -3.5 6.5t-3.5 5.5l-9 13t-10 13l-12 12q-4 3 -14 7.5t-12 5.5l-8 0.5t-12 0.5q-5 0 -14 -0.5t-10 -0.5l-5 -2.5t-8 -3.5
q-3 -2 -7.5 -4.5t-10.5 -6.5q-12 -7 -13 -8l-5 -5l-11 -11t-9 -10q-2 -2 -9.5 -11.5t-9.5 -13.5q-2 -2 -5.5 -7l-8 -11t-8 -11.5t-4.5 -8.5v139q0 2 -7 9t-12 10l-1 0.5t-2 0.5l-3 -1q-15 -4 -19 -19q-1 -5 -4 -18.5t-6 -28.5l-5.5 -28.5t-3.5 -19.5l-13 -6v-171
q-1 -2 -3.5 -12t-2.5 -13q0 -8 -1 -32.5t-1 -44.5v-18h17z" />
    <glyph glyph-name="o" unicode="o" horiz-adv-x="317" 
d="M-2 240v-25q0 -1 1 -7.5t2.5 -14.5t4 -16.5t4.5 -12.5q6 -26 17.5 -48.5t25.5 -45.5q1 -2 6 -9.5t7 -9.5q0 -2 2.5 -7t3.5 -6q1 -6 6 -6q1 -1 6.5 -0.5t6.5 0.5q1 -1 4.5 -4t8 -6.5l8 -6t4.5 -2.5q1 -1 11 -3t15 -4q1 0 6.5 -1l11.5 -2l11.5 -2t7.5 -1h7l13.5 3.5
t11.5 2.5q1 1 6.5 4l12.5 6.5t12.5 6t6.5 2.5q2 1 10 3t9 4q2 2 4 12t2 13q0 1 2 5.5l4.5 10l4.5 10t2 6.5q8 23 10.5 47.5t2.5 48.5v30q0 1 -1.5 7t-4 14.5t-4.5 16.5t-3 13q-1 2 -3 9.5t-3 9.5q-1 1 -3 5.5t-4 6.5q-3 5 -7 12.5l-8 14.5l-7 12.5l-3 5.5q-1 1 -6.5 7
l-12.5 13l-14 14t-11 10q-5 4 -14.5 11t-11.5 8l-5.5 0.5t-8.5 0.5t-9.5 -0.5t-7.5 -0.5q-2 0 -9.5 -3t-9.5 -3t-7.5 -1t-12 -2.5t-12 -2.5t-6.5 -1q-4 -1 -13.5 -5.5t-11.5 -6.5q-1 -1 -5.5 -5l-10 -9t-10 -10t-6.5 -8q-2 -2 -6.5 -9.5t-6.5 -9.5q-1 -2 -5 -14l-6 -18
q-2 -3 -4 -10t-3 -9q-1 -5 -2.5 -19t-2.5 -19zM65 207v33q0 12 1 13q0 1 2 10.5t4 14.5q1 4 3.5 11t2.5 8l6.5 10t6.5 9q3 3 12.5 10t12.5 9l2.5 0.5t3.5 0.5q2 0 4 -0.5t3 -0.5q2 0 6.5 -2.5t6.5 -3.5q1 -1 6 -6.5t6 -6.5q1 0 6.5 -1t12 -2t12 -2t7.5 -1q2 -1 6.5 -3
t6.5 -3q2 -3 6 -13t8 -21.5t7 -22t4 -13.5v-6q0 -5 0.5 -11.5t0.5 -13.5v-23q0 -7 -0.5 -14.5t-0.5 -13.5v-6q0 -2 -5 -14t-8 -18q-2 -5 -6.5 -14.5t-5.5 -10.5q-3 -3 -12.5 -10.5t-13.5 -8.5q0 -1 -4 -1h-11q-3 0 -4 1q-3 1 -15 8.5t-16 10.5q-3 2 -9 7.5l-12 11.5
t-11 11.5t-6 7.5q-1 0 -6 12.5t-7 18.5q-1 5 -4 14.5t-5.5 16t-2.5 7.5q-1 1 -1 11z" />
    <glyph glyph-name="p" unicode="p" horiz-adv-x="324" 
d="M29 40v-240q0 -3 1.5 -12.5t3.5 -21t4 -21.5t4 -14q0 -3 2.5 -8.5t5.5 -11.5t6 -11t5 -7q1 -2 8.5 -6.5t10.5 -6.5h12q2 0 6.5 2.5t6.5 3.5q3 2 8 7t5 6v253l6 13q3 0 9 1.5t13 3.5l13.5 4t8.5 3t8 5l13 9l13.5 9.5t9.5 7.5q5 3 14.5 13l16.5 17q5 6 7 8t6 11q2 5 4 8.5
t3 5.5q0 3 3 16t3 16q1 2 4 9.5l6.5 15.5t6 15.5t2.5 9.5q1 2 3 11.5t4 14.5l5 22.5l6 26.5l5.5 23l2.5 10v63q0 2 -2.5 9t-4.5 10q-7 16 -15.5 31t-22.5 26q-2 2 -12.5 9.5t-12.5 9.5t-6.5 4t-6.5 3q-1 0 -6 1t-11 2l-12 2t-9 1t-11 1t-17 2t-17 2t-11 1q-2 3 -9.5 13
t-9.5 12q-2 3 -7 8t-6 5t-4.5 0.5t-5.5 0.5t-5.5 -0.5l-3.5 -0.5q-1 0 -6 -5t-7 -8q-1 -1 -6 -9t-6 -9q-3 -3 -10 -11l-15.5 -17.5l-15.5 -17.5t-10 -11v-26h38q1 0 3 -5t3 -7v-13q0 -16 -1 -43.5l-2 -55t-2 -48.5t-1 -24q0 -6 -1 -17.5l-2 -23.5t-2 -22t-1 -13
q0 -1 -2.5 -5.5t-4.5 -6.5q-1 -2 -6 -9.5t-6 -9.5q0 -1 -0.5 -2l-0.5 -1q0 -1 0.5 -2.5l0.5 -1.5q0 -2 2.5 -6.5t3.5 -5.5zM111 78v50q0 7 0.5 25.5t1.5 38.5t2.5 38t2.5 25q0 4 1 13t2 19t2 19t1 12q0 2 2.5 12t3.5 13q1 2 3 7t4 6q2 3 9.5 10t9.5 9q2 1 9 3.5t9 2.5
q1 0 6 0.5t7 0.5t7 -0.5t6 -0.5q2 0 9.5 -2.5t9.5 -3.5l6 -6q4 -5 11 -14.5t8 -11.5q2 -2 4 -9.5t2 -9.5l0.5 -5t0.5 -12v-48q0 -6 -0.5 -11t-0.5 -6q0 -3 -2 -15t-4 -17q-1 -2 -2.5 -6.5l-3.5 -10.5l-11 -34.5t-8 -23.5q-1 -2 -4.5 -8.5t-7.5 -15t-8 -16l-6 -11.5
q0 -5 -6 -6q-7 -7 -19.5 -18l-21 -18.5t-9.5 -8.5h-17q0 4 -1 16t-1 16q-1 1 -4 6t-3 7z" />
    <glyph glyph-name="q" unicode="q" horiz-adv-x="295" 
d="M10 196v-44q0 -1 2.5 -10.5t3.5 -14.5q5 -14 10.5 -27t15.5 -24q1 -2 6.5 -8.5l12 -14l12 -14t7.5 -7.5q1 -2 2.5 -10t3.5 -9q2 -2 12.5 -4t12.5 -3q2 0 7 -2.5t6 -3.5q5 -1 17.5 -6t14.5 -6q2 0 9.5 -2l15.5 -4l15.5 -4t9.5 -2q7 -1 7 -7v-209q0 -2 5 -9l7 -10
q2 -1 6.5 -3t6.5 -3h13q14 14 19 25q0 1 1 6t2 11l2 12t1 9q1 10 3 26.5t4.5 32.5t4 28.5t1.5 14.5q0 6 0.5 26.5t1 46l1 49t0.5 35.5v19q0 7 0.5 26t1 40t1 40t0.5 27q0 1 -1 5.5t-2 10t-2 10t-1 6.5q0 1 -0.5 9t-0.5 13q0 2 0.5 11t0.5 11l6 6q2 5 7 14.5l6 11.5v19
q-1 2 -3 12t-4 13q-1 4 -4 11.5t-6 16l-5.5 15t-3.5 8.5q0 1 -5 8.5l-7 10.5q-1 1 -3.5 3t-3.5 3q-2 2 -6.5 4t-5.5 2q-5 2 -19 4t-19 3h-32q-2 -1 -9.5 -3t-9.5 -4q-2 -1 -9.5 -5.5t-9.5 -6.5q-3 -3 -9.5 -9t-13.5 -13.5l-13 -13.5t-8 -9q-2 -1 -7 -9t-6 -10
q-1 -1 -4.5 -5.5l-8 -10l-8 -10t-4.5 -5.5q-2 -3 -6.5 -11.5t-9.5 -19l-9.5 -20l-6.5 -13.5q-1 -2 -2.5 -7t-4 -11t-4 -11.5t-2.5 -8.5q-1 -5 -3.5 -19t-2.5 -19zM73 139v8q0 6 -0.5 12t-0.5 11v17q0 7 0.5 13t0.5 10v5q0 1 1.5 6t3.5 11l4 12t4 9q1 3 6 13t7 13q3 4 8 12
t9.5 16l8.5 14.5t5 7.5l51 51q1 0 4.5 0.5t5.5 0.5t5.5 -0.5l3.5 -0.5q2 0 4 -2.5t2 -3.5q1 -3 2.5 -11.5t2.5 -17.5t1.5 -17t0.5 -11v-26q0 -12 -1 -43.5t-2.5 -67t-2.5 -67t-1 -43.5q0 -2 -2 -7t-4 -6q-1 -1 -8 -3t-11 -3l-1 -0.5t-2 -0.5t-2 0.5l-1 0.5q-10 2 -18.5 6
t-13.5 6q-1 1 -4.5 4t-8 6.5l-8 6t-4.5 2.5q-2 2 -10 6.5t-9 6.5q-2 1 -6.5 8.5t-6.5 10.5t-6.5 12.5t-6.5 12.5z" />
    <glyph glyph-name="r" unicode="r" horiz-adv-x="253" 
d="M9 274l34 -262h48q5 0 6 1q2 0 6.5 2t5.5 4q2 1 4 6t3 7v19q-1 2 -3.5 9.5t-3.5 9.5q0 3 -2 14t-4 23.5l-4 24t-2 14.5q-1 2 -3.5 12.5t-3.5 12.5q0 1 -1 5.5t-2 10t-2 10t-1 5.5q-1 2 -3 9.5t-3 9.5v112q3 0 12 1t17 1h9q1 0 9.5 -1l20.5 -2.5l25 -3t24 -3.5
q7 -1 19 -3.5t13 -2.5l6 -2t32 2v6q19 7 18 15t-15.5 15.5t-38.5 14t-50 11.5t-50 8t-39 3q-1 0 -10.5 0.5t-14.5 0.5q-3 0 -13 -0.5t-12 -0.5q-3 -2 -10 -9t-9 -10q-3 -4 -8 -13.5t-5 -11.5z" />
    <glyph glyph-name="s" unicode="s" horiz-adv-x="293" 
d="M63 133q-12 -14 -13 -38t13 -63q5 -2 18.5 -9.5t19.5 -9.5q2 -2 9.5 -4t9.5 -3q6 0 20 -3t18 -3h26q1 0 7.5 3t14.5 7.5t16 8.5l12 6l3 3t3 4q2 2 6.5 9l6.5 10q1 1 3.5 6t2.5 6q2 2 7 9.5t6 9.5v6q0 2 -3 7t-3 6q0 3 -3.5 16t-3.5 16q0 2 -2.5 9.5t-3.5 9.5q-2 3 -4.5 9
t-5.5 12l-5.5 11t-3.5 6q-2 3 -9.5 12.5l-16.5 21.5l-18 23.5t-13 17.5q-2 2 -8 9l-13.5 16l-15.5 19l-15 18q-10 11 -11 14l-7 10t-6 9q-2 4 -7 18t-5 20q0 1 -0.5 3t-0.5 4q0 1 0.5 3.5l0.5 2.5q0 1 2.5 3.5t3.5 2.5l2 0.5t4 0.5t4 -0.5t3 -0.5t8 -2.5t11 -3.5q6 -2 18 -7
t13 -6q2 -1 11.5 -8t14.5 -11q2 -1 6.5 -5.5t5.5 -6.5q2 -3 9.5 -13t9.5 -13q5 2 10.5 5t8.5 8q6 6 6 13q1 0 1 5v15q0 5 -1 5q-2 5 -11 15.5t-14 15.5q-1 1 -8.5 6t-17.5 11l-20.5 12t-16.5 9l-13.5 7l-11.5 6q-3 2 -13 4t-13 2q-1 1 -8 1h-22q-7 0 -8 -1q-1 0 -5.5 -2
t-6.5 -4l-19 -19q-1 -1 -3.5 -6t-2.5 -7q-1 -3 -3 -10l-4.5 -15t-4 -15t-1.5 -10l12 -25l13 -13q1 -2 5.5 -9.5l9.5 -16t10 -16t7 -9.5l25 -25q2 -2 6.5 -9.5t6.5 -9.5q1 -2 9 -12q6 -6 12.5 -14.5t12 -16.5t10 -13.5t6.5 -6.5q2 -2 8.5 -14t10.5 -18q7 -12 13.5 -25.5
t6.5 -27.5q0 -2 -0.5 -5.5t-0.5 -4.5q-1 -3 -3 -10.5t-3 -8.5q-2 -2 -11.5 -6.5t-13.5 -5.5q-1 -1 -6 -1h-14q-5 0 -6 1q-1 0 -3 3t-3 3q-2 0 -9.5 -0.5t-9.5 0.5q-5 0 -6 6q-2 2 -4 6.5t-3 6.5v19q1 2 6.5 9.5t6.5 9.5l0.5 2.5t0.5 3.5q0 2 -0.5 4l-0.5 2q-1 2 -6 4.5
t-7 2.5q-1 0 -8.5 -2.5t-10.5 -4.5q-2 -1 -9.5 -6t-9.5 -6z" />
    <glyph glyph-name="t" unicode="t" horiz-adv-x="216" 
d="M41 54v-8q0 -2 1 -2q0 -1 2.5 -6t3.5 -6q1 -2 3 -10t3 -9q2 -3 6.5 -7.5t6.5 -5.5h31q6 3 10 9t6 13q5 11 9.5 26t6.5 21v13q0 2 -2.5 9l-3.5 10q-1 1 -3.5 6l-3.5 7q-1 3 -3.5 13t-2.5 12q0 3 -1 12t-2 20l-2 21.5t-1 15.5q-1 7 -2.5 23.5t-2.5 34.5t-1.5 34t-0.5 22v50
l13 13t13 6h69q2 0 7 2.5t6 4.5l0.5 5t0.5 7t-0.5 7t-0.5 6l-13 13q-1 0 -6 2.5l-7 3.5l-10 3.5t-8 2.5q-3 1 -11.5 2.5t-17.5 2.5t-17 1.5t-11 0.5l-7 6v82q0 4 1 18.5t2.5 32t2.5 32t1 18.5v38l-5.5 5.5t-7.5 6.5q-2 2 -6.5 4t-6.5 3h-12q-2 -2 -6.5 -9l-6.5 -10
q-1 -2 -3 -14l-3 -18q0 -3 -1 -10t-2 -15t-2 -15t-1 -10q-1 -9 -3 -31.5t-3.5 -47.5t-3.5 -47.5t-3 -31.5q-2 -2 -4.5 -7.5t-5.5 -11.5t-5.5 -11.5t-3.5 -7.5q0 -1 -0.5 -5.5t-0.5 -7.5q0 -2 0.5 -7l0.5 -5q1 -2 6.5 -9.5t6.5 -9.5q1 -3 3.5 -12.5t2.5 -12.5q0 -11 1.5 -38
t4 -57t4.5 -57t3 -38q0 -2 1 -9.5l2 -15.5l2 -15.5t1 -9.5v-19q0 -2 -3 -9.5t-3 -9.5q-1 -1 -1 -3z" />
    <glyph glyph-name="u" unicode="u" horiz-adv-x="445" 
d="M89 39h13q1 0 10 -5t16 -9.5t8 -5.5l22 -11.5t16 -7.5h45q2 0 14 4.5t17 8.5q2 1 9.5 4.5t16 8t16 8t9.5 4.5l2.5 0.5t4.5 0.5q1 0 3 -0.5t3 -0.5q2 -1 9.5 -9.5t9.5 -9.5q3 -2 8.5 -5l11.5 -6t10.5 -5.5t6.5 -2.5h57q24 0 45.5 11.5t39.5 30.5q12 10 17 20t5 18
q0 20 -20 20q-7 -5 -13.5 -11.5t-11.5 -10.5q-9 -9 -24 -16.5t-31.5 -9.5t-32.5 3t-28 20l-6.5 13.5t-5.5 12.5q0 1 -1.5 8t-3 15.5l-3 16.5t-1.5 11q-1 5 -2.5 20t-2.5 32.5t-1.5 33t-0.5 21.5v57q0 6 -1 16.5l-2 22t-2 20.5t-1 11q-1 3 -6 12.5t-7 12.5q-1 1 -5.5 3.5
t-6.5 2.5q-1 1 -5 1h-11q-3 0 -3 -1q-7 -5 -13 -12t-6 -13v-63q0 -11 -1 -37t-2.5 -55.5t-2.5 -55.5t-1 -36q-1 -3 -4.5 -10l-7.5 -15l-7.5 -15t-5.5 -10q-2 -2 -9 -9.5t-10 -9.5q-2 -1 -9 -3.5t-10 -2.5q-1 -1 -5 -1h-11q-3 0 -3 1q-2 1 -9 8t-10 11q-3 3 -6 12t-7 19
q-1 5 -3.5 14.5t-2.5 10.5v26q0 3 1 13l2 21l2 21t1 14q0 2 1 8.5t2.5 14t2.5 14t1 8.5v132q-4 7 -8.5 13.5t-10.5 12.5q-1 0 -7 0.5t-9 0.5t-9 -0.5t-7 -0.5q-1 -1 -5.5 -6t-6.5 -7t-6.5 -12t-6.5 -13l-8 -22t-5 -16v-222q0 -2 -6 -15t-11 -21q-1 -2 -12 -10.5t-14 -12.5
l-30 -25q0 -1 -0.5 -3t-0.5 -3q0 -2 0.5 -4.5l0.5 -2.5q0 -2 2 -10t4 -10q1 -2 2.5 -5.5t3.5 -3.5q1 -1 8 -1h11l7 3q1 0 6 2l11.5 4.5t7.5 3.5q2 1 13 4t13 4z" />
    <glyph glyph-name="v" unicode="v" horiz-adv-x="277" 
d="M8 360v-63q1 -1 3 -8t3 -11q0 -4 1 -18.5t2 -32t2 -32t1 -18.5q0 -2 0.5 -7.5t1.5 -13t2.5 -14t2.5 -9.5q1 -5 3 -17t3 -15q0 -2 3.5 -13l6.5 -21l4.5 -15.5t4.5 -13.5l6.5 -13.5l5.5 -11.5l7 -7q2 -1 6.5 -3.5t5.5 -2.5h26q1 0 5.5 2.5t6.5 3.5q4 3 11 10t8 9l1 2.5
l3 7.5q5 11 12 28t10 25q0 1 1.5 6.5l3.5 13l4 14.5t3 11q1 2 3 9.5t3.5 15.5t3.5 15.5t3 9.5q0 2 3 9.5t3 9.5q1 3 4.5 16t8 28t8 28.5t4.5 16.5q1 4 4.5 14.5l7.5 22.5l8 23t6 16q0 1 2 5.5t4 10t4 10t2 5.5q2 3 4 10.5t3 8.5v13l-3 3t-4 3q-2 2 -6.5 4t-5.5 2
q-2 0 -9.5 -2t-9.5 -4q-3 -2 -10 -9.5t-9 -9.5q-1 -1 -3.5 -5.5t-5.5 -10.5l-6 -12.5t-4 -9.5q-2 -3 -6.5 -15t-6.5 -16q-3 -8 -8.5 -24l-12 -33.5l-11.5 -32t-6 -18.5q-1 -2 -3 -12.5t-3 -12.5q-1 -3 -3 -9.5l-4 -13.5t-3.5 -13t-2.5 -8q0 -6 -5 -20t-7 -18
q-1 -1 -3.5 -1.5t-3.5 -0.5t-3.5 0.5t-2.5 1.5q-1 1 -3.5 9t-2.5 10q-2 2 -5 12t-5 13v177q0 1 -6 10.5t-10 14.5q0 1 -2.5 3.5t-3.5 2.5q-2 2 -6.5 4.5t-5.5 2.5h-19q-1 0 -3.5 -2.5t-3.5 -4.5q0 -2 -6 -12t-6 -13z" />
    <glyph glyph-name="w" unicode="w" horiz-adv-x="520" 
d="M67 25q4 -2 16 -6.5t16 -5.5q3 -2 9 -4l12 -4t11 -3.5l5 -1.5h19q2 0 9 2.5l10 3.5l7 3.5t6 3.5q3 0 13 3t12 3q4 2 14 12t12 13q1 2 0 9.5t0 9.5q3 20 19 32h6l6 -6q2 -2 6.5 -9.5t6.5 -9.5q0 -1 1.5 -5t4 -8.5l4.5 -8t3 -4.5q2 -2 11.5 -6.5t13.5 -5.5q1 0 9.5 -0.5
t19.5 -1.5t22.5 -2.5t17.5 -2.5h19q2 1 9.5 9.5t9.5 9.5q1 1 7 3q5 2 8.5 6.5t3.5 9.5q1 1 4 5.5l6.5 10t6 10.5t2.5 6q2 2 6.5 12t6.5 13q1 4 4 11t6.5 14t6 12.5t2.5 6.5q1 3 3.5 12.5t2.5 13.5q1 3 2 10t2 15t2 15t1 10v26l-2.5 18t-2.5 22t-1.5 19.5t-0.5 9.5t-2 6
t-5 11l-6 12t-6 9l-6.5 10t-5.5 9q-2 3 -7 7.5t-10 10t-9.5 9.5t-5.5 5l-11.5 5.5l-13.5 6.5q0 1 -2 1h-1q-3 0 -4 -1q-2 -1 -7 -3t-5 -3l-0.5 -3t-0.5 -5t0.5 -6t0.5 -5t2 -6t4 -7q1 -1 6.5 -9t6.5 -10q1 -3 4.5 -10t8 -15t8 -15t4.5 -10q2 -3 4 -10t2 -9q1 -1 1 -14v-41
q0 -14 -1 -15l-2 -10t-4 -15q-1 -4 -3 -11t-4.5 -14t-4 -12.5t-1.5 -6.5q0 -2 -5 -12l-7 -14q-1 -1 -6 -8.5l-7 -10.5q-4 -5 -11 -15t-8 -10l-4.5 -0.5t-6.5 -0.5t-7.5 0.5t-6.5 0.5q-2 1 -6.5 3t-6.5 4q-1 0 -8 10t-11 15q-2 2 -6.5 9.5t-5.5 9.5q-2 2 -4 6.5t-3 5.5
q-2 7 -6 19.5t-8.5 24.5t-7.5 21t-3 11q-1 3 -2.5 13.5l-3.5 24l-4 26t-3 19.5q0 3 -1 14t-2 23.5t-2 23.5t-1 14q0 2 -5 11.5t-8 14.5q-1 1 -3 3.5t-3 2.5t-6 0.5t-7 0.5q-3 0 -7.5 -0.5l-4.5 -0.5q-2 0 -6.5 -5t-6.5 -8q-2 -2 -4 -6.5t-2 -5.5v-234q0 -1 -2.5 -11
t-4.5 -15q-1 -3 -3 -10t-3 -9q-1 -3 -3.5 -8.5t-6 -11.5t-6 -11t-3.5 -6q-4 -7 -13 -13t-12 -6q-5 0 -14.5 2t-10.5 4q-1 0 -3.5 4.5t-5.5 10.5l-6 12.5t-4 10.5q-2 2 -4 9.5t-3 9.5q-2 5 -4 17t-2 14v9q0 8 -0.5 18.5t-0.5 21.5v35q0 11 0.5 21.5t0.5 18.5v9q0 1 2 13.5
t4 18.5q1 2 3.5 12.5t3.5 12.5v19q-1 2 -6 9.5t-7 9.5q-6 6 -13 6q0 1 -4 1h-11q-3 0 -4 -1q-2 0 -6.5 -2t-5.5 -4q-2 -2 -6.5 -11.5l-6.5 -13.5q-1 -3 -2.5 -10t-3.5 -15l-4 -15.5t-3 -10.5q0 -2 -1 -10t-2 -17l-2 -17.5t-1 -12.5v-31q0 -2 1 -10t2 -17l2 -17.5t1 -12.5
q1 -5 3.5 -19t3.5 -19q0 -2 2.5 -12t3.5 -13q1 -4 3.5 -11t2.5 -8z" />
    <glyph glyph-name="x" unicode="x" horiz-adv-x="339" 
d="M-12 45q0 -5 2.5 -19t3.5 -19q1 -6 6 -6l3.5 -0.5t5.5 -0.5t5.5 0.5t4.5 0.5t6 3t6 3h19q6 0 17 8t19 15l9 9l13 12.5t12 12.5q1 2 6 9.5t7 9.5q1 2 4.5 6.5l7.5 9.5l7.5 9.5t5.5 6.5q2 -1 6.5 -3t5.5 -4q2 -1 7 -6l6 -6q3 -3 9.5 -9t14 -12t13 -11t7.5 -6q1 -1 6.5 -5
t13 -9l14.5 -10l11 -8q2 -1 9.5 -6t9.5 -7l6 -6q10 6 18.5 13t13.5 12v9q0 17 -13 29q-1 1 -6 5l-10 8l-10 8t-6 5q-2 1 -9.5 7.5l-16 14l-15.5 14t-9 8.5q-12 10 -26 19t-19 25v6q3 5 9.5 18.5l14 29l13.5 29t8 18.5q1 3 3.5 13t2.5 13q0 1 0.5 10.5t0.5 14.5t-0.5 14.5
t-0.5 10.5q0 3 -2.5 15l-3.5 17q-1 2 -3 6.5t-4 6.5q-1 1 -3 3.5t-3 2.5h-13q-1 -1 -3.5 -3t-2.5 -3v-38q0 -2 -2.5 -10l-5.5 -17l-6 -17.5t-5 -12.5q0 -2 -2.5 -7t-6 -11l-6.5 -11.5t-4 -8.5q-3 -6 -10 -18t-9 -14t-6.5 -4.5t-5.5 -1.5q-2 0 -9 7t-10 12q-1 1 -5 5.5t-8 10
t-8 10t-5 5.5q-5 6 -13.5 14.5l-16.5 17t-14 14l-6 5.5h-21q0 -2 0.5 -9.5t1.5 -9.5q0 -2 2 -9.5t4 -9.5q1 -3 4.5 -10l7.5 -15.5l7.5 -15.5t5.5 -10q1 -1 6 -8t7 -11q1 -1 3.5 -4.5l5.5 -7.5l6 -8t4 -5q3 -4 7.5 -11t5.5 -8v-31l-6 -11.5t-7 -14.5l-6 -9l-8 -12t-7 -11
t-4 -6l-38 -38q-4 -2 -15.5 -4.5t-15.5 -1.5z" />
    <glyph glyph-name="y" unicode="y" horiz-adv-x="268" 
d="M-286 -279q0 -2 0.5 -7.5l0.5 -5.5q0 -2 2.5 -6.5t3.5 -6.5l13 -13l17 -10.5t15 -8.5q4 -2 18 -4t20 -2q1 0 6.5 0.5t11.5 1.5l11.5 2t7.5 2q1 0 7.5 2.5l15 5.5l16.5 6t12 5q2 1 6.5 3t6.5 4q3 1 8 3.5t10 6t9 6t4 3.5l13.5 10.5l19.5 15.5l18.5 15t11.5 9q2 3 12.5 13
l22.5 22l23.5 23.5t16.5 17.5q1 1 7 8l13 15l14 16t11 12l12.5 16t12.5 15q1 2 6 9l7 10l8 13.5t10.5 16.5t9 14.5l3.5 6.5q1 3 4.5 10.5l7.5 16l8 17t5 12.5q2 4 6 15l8 23l7.5 22.5t4.5 14.5q0 2 2 16t4 22q0 3 1 9t2 13.5t2 13.5t1 9q1 4 2 12.5l2 17t2 14.5l1 6v89
q-1 3 -3 15t-4 16q-1 3 -5.5 13t-6.5 13l-6.5 6.5t-6.5 5.5q-3 2 -10 4.5t-9 2.5q-2 -1 -9 -6l-10 -7q-6 -6 -6 -13v-164q0 -1 -1.5 -8t-4 -16t-4.5 -18t-3 -15q0 -4 -5 -18l-7 -20q-1 -2 -3.5 -6.5t-3.5 -6.5q-2 -3 -9.5 -10t-9.5 -8q0 -1 -2 -1h-3q-11 0 -18.5 5.5
t-14.5 13.5q-2 4 -9.5 14t-9.5 12t-6 12t-6 13l-3.5 10t-6 15.5t-6 15.5l-3.5 10q-2 4 -4 11l-4 14l-3.5 12.5t-1.5 6.5t-0.5 14.5t-0.5 21.5t0.5 23t0.5 17q0 1 2.5 8t3.5 11q2 2 4 7t3 5q1 1 6 5.5t10 9.5t9.5 10t5.5 7q1 0 1 4v15q0 6 -1 6q0 1 -6 7q-4 2 -11 7t-8 5
l-3.5 0.5t-5.5 0.5t-5.5 -0.5t-4.5 -0.5q-2 0 -6.5 -2.5t-6.5 -3.5l-24 -25q-1 -1 -3 -6t-3 -7l-3 -9t-4.5 -12t-4 -11t-1.5 -6q0 -2 -1 -8t-2 -13l-2 -13.5t-1 -9.5v-32q0 -3 1 -11.5l2 -17.5t2 -17t1 -11q1 -2 3 -11.5t4 -13.5q9 -35 22.5 -70.5t39.5 -68.5q0 -1 2.5 -3.5
t3.5 -2.5q2 -2 12 -9.5t13 -9.5l16 -10.5t16 -8.5q0 -2 0.5 -8t0.5 -8q0 -3 -0.5 -8.5t-0.5 -6.5l-5.5 -11.5t-7.5 -13.5q0 -1 -2.5 -5t-6 -8.5t-6.5 -8t-4 -4.5q-1 -2 -5.5 -8t-9.5 -13.5t-10 -14t-6 -8.5q-2 -3 -6 -7.5t-8 -9.5l-7.5 -9t-4.5 -5l-10.5 -11l-16.5 -17
l-17 -17.5l-11 -11.5q-1 -1 -5.5 -5l-10.5 -9l-12 -10t-10 -8l-39 -30t-44 -20q-5 -2 -17 -4t-14 -3h-32q-1 0 -8 2.5t-11 4.5q-1 0 -5.5 2t-10 4t-10 4t-5.5 2q-2 1 -7 -1.5t-6 -4.5l-0.5 -4.5t-0.5 -7.5z" />
    <glyph glyph-name="z" unicode="z" horiz-adv-x="362" 
d="M35 82l7 -50q1 -2 5.5 -9.5t6.5 -9.5q1 -2 3.5 -4t3.5 -3q2 -1 9.5 -3.5t9.5 -2.5h25q6 0 18.5 1l25.5 2t24 2t14 1q4 1 16 3t16 4q2 0 10.5 2.5t18.5 6l18 6.5t10 4q2 0 12.5 2.5t12.5 3.5q5 2 14 6t17 9q5 3 9 6.5t4 10.5q0 2 -2 6.5t-4 5.5q-2 2 -9 4t-10 3h-38
q-3 -1 -15 -4l-26 -6.5t-26 -6t-15 -2.5h-38q-2 -1 -6.5 -3.5t-6.5 -3.5h-25q-2 1 -6.5 6t-6.5 7v6l3.5 10t3.5 9l6 12.5l8 16.5l7 14.5t4 7.5l44 44q2 2 10.5 9.5l18 16l18 16t10.5 9.5q4 1 13 12q10 11 12 13t6 7l15 18t11 13l6.5 9.5l10 14l9.5 13t6 7.5q1 2 5.5 12
t6.5 14q2 3 4.5 10t2.5 9t-2.5 9t-4.5 10q-2 2 -6 7t-6 5q-1 0 -6.5 1t-13 2l-14.5 2t-11 2h-19q-2 0 -8 -1t-13.5 -2.5t-14 -2.5t-8.5 -1q-3 0 -11.5 -1t-18.5 -2l-19.5 -2t-13.5 -1q-3 0 -15 -1t-26 -2t-26 -2t-15 -1q-2 -1 -11.5 -3t-14.5 -4q-2 -1 -9.5 -3t-9.5 -3
q-11 -11 -12 -21.5t6 -22.5q4 0 15 -0.5t23 -0.5t23 0.5t15 0.5q2 0 10.5 1t18 2t18 2t10.5 1h17q9 0 19 -0.5t20 -0.5t17.5 -0.5t11.5 -0.5q0 -2 2 -8.5t1 -8.5t-5.5 -9.5t-6.5 -9.5l-133 -133q-1 -1 -8.5 -10.5t-10.5 -14.5l-6 -9t-8.5 -12t-7.5 -11t-3 -6q-2 -2 -6 -9
t-8 -15.5l-7.5 -16t-4.5 -10.5z" />
    <glyph glyph-name=".0123" unicode="{" horiz-adv-x="356" 
d="M75 162v-10q0 -10 1 -27.5l2 -35t2 -30.5t1 -14t1.5 -7.5l3.5 -14.5l4 -16t4 -12q1 -2 3 -9.5t3 -9.5q0 -3 6.5 -13t6.5 -12q2 -4 6.5 -18l6.5 -20q0 -2 2.5 -13t3.5 -13t8.5 -9l10.5 -10q3 -2 12.5 -9l20.5 -15l21.5 -15.5t15.5 -10.5q2 -2 6.5 -4t5.5 -3q4 0 18 -3
t20 -3h10h9q2 0 6.5 2.5t6.5 3.5l13 13v3v3q-1 2 -8.5 11.5t-10.5 14.5q-2 1 -4 3.5t-3 2.5h-19q-3 1 -15.5 3t-15.5 3l-51 51q-1 1 -3.5 6l-5.5 11l-6 12t-4 9q-1 2 -2.5 7t-4 11t-4 11.5t-2.5 8.5q0 3 -3 15.5t-3 15.5q0 1 -1.5 6t-3 11.5t-1.5 7.5t-0.5 6t-1.5 11
t-2.5 12t-2.5 9q0 3 -1 9.5l-2 13.5t-2 13t-1 8v3v4q0 9 1 26l2 34.5t2 31t1 15.5q0 4 1 14t2.5 21.5t2.5 21.5t1 13q0 6 3 20t3 18q0 1 2 6.5l4.5 12l4.5 12t2 7.5t2.5 12.5t3.5 12.5q0 2 1.5 7t4 11t4.5 11.5t3 8.5q1 4 4 12.5l6 16.5l5.5 14.5t3.5 7.5q1 3 4.5 10.5
l7.5 15.5l7.5 15t5.5 10q1 2 8.5 11.5l10.5 13.5q2 2 6.5 7t6.5 6q1 1 5.5 3.5t10 6t10 6t5.5 3.5q5 3 8 8.5t5 10.5v3v3q-3 4 -10 11t-9 8q-1 0 -7 0.5t-9 0.5t-9 -0.5t-7 -0.5q-2 -1 -11 -8l-14 -11l-32 -32q-1 -1 -4 -6l-6.5 -11t-7.5 -12t-7 -9q-1 -1 -3 -5.5t-3 -6.5
q-2 -5 -6 -14l-8 -18.5t-7.5 -16.5t-4.5 -8q0 -1 -2.5 -8l-5.5 -15l-6 -16t-5 -12q-1 -2 -3 -9.5t-3 -9.5t-3.5 -12.5t-2.5 -12.5q-1 -2 -3.5 -9.5t-3.5 -9.5q-11 -54 -16.5 -107.5t-8.5 -108.5v-9z" />
    <glyph glyph-name=".0125" unicode="}" horiz-adv-x="222" 
d="M47 -153q0 -3 1 -3q2 -4 9.5 -11t9.5 -8h9h9q1 0 6 2.5t10.5 6l10 6.5t5.5 4q2 1 9.5 3.5t9.5 2.5q2 4 7.5 16l11.5 25l11.5 24.5t7.5 16.5q1 3 5.5 15l6.5 17q2 3 4 10t3 9l3 12t4 17t3.5 16.5t1.5 10.5q1 3 2.5 10.5t2.5 15.5t1.5 15t0.5 9v56v58q0 3 -1 14.5t-2 24.5
l-2 25t-2 18q0 3 -2 17.5t-4 20.5q-1 3 -3 13t-3 12q-9 26 -22 49t-29 45q-3 5 -10 14.5t-9 11.5l-56 56q-1 1 -7 1h-6h-7q-5 0 -6 -1q-1 0 -3.5 -2t-2.5 -4l-0.5 -5t-0.5 -7t0.5 -6.5t0.5 -6.5q3 -2 10.5 -9t15.5 -15.5l15 -16t9 -10.5q2 -2 6.5 -10t9.5 -18.5l9.5 -20
t6.5 -14.5q1 -3 3.5 -11.5l5.5 -18.5l6 -19.5t4 -13.5q0 -1 1 -7t2 -14l2 -16.5t1 -12.5q1 -6 2.5 -17.5t2.5 -22.5t1.5 -20t0.5 -10v-70v-69q0 -1 -0.5 -7t-1.5 -14t-2.5 -16l-2.5 -13q-2 -16 -5.5 -34.5t-13.5 -33.5l-8.5 -14l-11.5 -18l-11 -16t-7 -9q-1 -2 -5.5 -6.5
l-6.5 -6.5q-3 -2 -12.5 -9.5t-12.5 -9.5q-1 0 -1 -3z" />
    <glyph glyph-name="asciitilde" unicode="~" horiz-adv-x="501" 
d="M9 22q0 -2 0.5 -5.5l0.5 -3.5q1 -2 6 -7t7 -6l2.5 -0.5t3.5 -0.5q2 0 4 0.5l2 0.5q3 2 13 11.5t13 13.5q1 2 8 14t11 18q0 1 2.5 6.5t3.5 6.5q2 2 12 9.5t13 9.5q18 -8 35 -19t35 -19l11.5 -5.5l14.5 -6.5t12.5 -5l5.5 -2q2 -1 9 -2t15 -2l15.5 -2t11.5 -1h53h54
q2 1 7.5 2.5t11.5 3.5l11.5 4t7.5 3t9.5 6t9.5 7q15 11 25 31q2 3 5 9l6 12l5.5 11t2.5 6q2 4 4 16t3 16v40v36q-1 5 -6 19t-7 19q-1 2 -6 4t-7 2q-1 0 -5.5 -2t-6.5 -4l-13 -13q-2 -2 -4 -6.5t-2 -6.5t-1 -12t-2.5 -22t-2.5 -22t-1 -13q0 -2 -2 -11.5t-4 -14.5
q-1 -4 -3.5 -11t-2.5 -8q-2 -3 -12 -12.5t-14 -12.5q-2 -2 -11.5 -6.5t-13.5 -5.5q-4 -2 -16 -4t-15 -3h-38h-32q-1 0 -6 1.5t-11 3.5l-12 4t-9 4l-11.5 6l-13.5 7q-5 2 -17 9t-15 9q-1 1 -4.5 4t-7.5 6l-8 6t-5 3q-2 2 -9.5 4t-9.5 3h-16h-16q-2 -1 -9.5 -3t-9.5 -4
q-2 -1 -9 -8t-10 -11q-1 -2 -5.5 -9t-6.5 -9l-7 -13.5t-6 -12.5q-2 -4 -5 -12l-6 -16l-5.5 -14.5t-2.5 -7.5t-0.5 -4.5t-0.5 -5.5z" />
    <glyph glyph-name=".0133" unicode="&#x2026;" 
d="M119 22q0 -1 0.5 -3l0.5 -2q2 -4 9.5 -11t9.5 -8q1 -1 6 2.5t7 3.5h12q2 0 6.5 2.5t6.5 3.5l3.5 3.5t2.5 3.5l0.5 5t0.5 7t-0.5 7t-0.5 6t-2.5 5.5t-3.5 6.5q-3 5 -8.5 8t-10.5 5h-3h-3q-2 -1 -6.5 -3t-6.5 -3l-3.5 -3.5t-2.5 -3.5q-2 -3 -7 -13l-6 -12l-0.5 -2.5
t-0.5 -4.5zM248 22q0 -1 0.5 -3l0.5 -2q2 -4 9.5 -11t9.5 -8q1 -1 6 2.5t7 3.5h12q2 0 6.5 2.5t6.5 3.5l3.5 3.5t2.5 3.5l0.5 5t0.5 7t-0.5 7t-0.5 6t-2.5 5.5t-3.5 6.5q-3 5 -8.5 8t-10.5 5h-3h-3q-2 -1 -6.5 -3t-6.5 -3l-3.5 -3.5t-2.5 -3.5q-2 -3 -7 -13l-6 -12
l-0.5 -2.5t-0.5 -4.5zM364 25q0 -1 0.5 -3l0.5 -2q2 -4 9.5 -11t9.5 -8q1 -1 6 2.5t7 3.5h12q2 0 6.5 2.5t6.5 3.5l3.5 3.5t2.5 3.5l0.5 5t0.5 7t-0.5 7t-0.5 6t-2.5 5.5t-3.5 6.5q-3 5 -8.5 8t-10.5 5h-3h-3q-2 -1 -6.5 -3t-6.5 -3l-3.5 -3.5t-2.5 -3.5q-2 -3 -7 -13
l-6 -12l-0.5 -2.5t-0.5 -4.5z" />
    <glyph glyph-name=".0136" unicode="&#x2c6;" 
d="M91 605q0 1 0.5 2l0.5 1q0 2 2.5 6.5t3.5 6.5l19 19q2 1 8 5.5l13 9.5l13.5 9.5l9.5 6.5q1 1 6 3.5t10 5.5l10 6t6 4q2 1 9.5 6.5t9.5 6.5q1 0 5.5 2t10 4t10 4t5.5 2l7 3.5t6 3.5q3 2 10.5 4t8.5 2t10.5 0.5t14.5 0.5t15 -0.5t11 -0.5q5 0 13.5 -4l14.5 -7q8 -5 17 -9.5
t11 -4.5q2 -1 7 -6l11 -11l11.5 -12t8.5 -9q2 -2 4 -6.5t3 -6.5v-6v-6q-1 -2 -3 -6.5t-4 -6.5q-2 0 -7.5 -0.5t-7.5 -0.5q-4 0 -10 0.5l-6 0.5q-2 0 -6.5 2.5t-6.5 3.5q-1 1 -3 6.5t-3 6.5q-2 1 -11 6t-14 7l-10.5 3.5t-8.5 2.5h-16h-16q-1 0 -8 -2.5t-11 -3.5l-17.5 -7
t-14.5 -6q-3 -2 -10.5 -5.5l-15.5 -7.5l-15 -7.5l-9 -4.5l-7 -7q-2 -2 -14 -9.5t-17 -9.5t-14.5 -7t-10.5 -5q-1 -1 -6 -1h-7h-7q-5 0 -6 1q-2 0 -6 6t-6 13l-0.5 1t-0.5 2z" />
    <glyph glyph-name=".0137" unicode="&#x2030;" horiz-adv-x="1053" 
d="M174 25q0 -2 0.5 -7l0.5 -5q0 -3 2.5 -7.5t3.5 -5.5h25q20 3 32 19q1 2 6 9.5t7 9.5q1 1 4.5 5.5l8 10l8 10t4.5 6.5t4.5 7.5l7.5 11.5l7.5 11l5.5 8q1 1 5 7.5l8.5 14t8 14t4.5 8.5t5 8.5t9.5 14.5t10 15.5t6.5 11.5l7.5 12t5.5 7q1 1 2.5 -0.5t2.5 -1.5q0 -2 0.5 -5
t0.5 -5t-1 -7.5t-2 -12t-2 -12t-1 -6.5v-19q0 -2 2.5 -11.5t3.5 -14.5q2 -4 4 -11l2 -7l11.5 -12t14.5 -14q2 -3 10.5 -9t14.5 -12l9 -6t10 -4q1 -1 7.5 -3l14 -4.5t14 -4t8.5 -1.5q2 -1 9.5 -3.5t9.5 -2.5q1 -1 10 -1h30q10 0 11 1q2 0 6.5 0.5t9.5 1.5t9.5 2t5.5 2
q3 1 10.5 4.5l15.5 7t15.5 7.5t9.5 6q3 2 12.5 11.5t12.5 14.5q3 4 10.5 16t8.5 15q1 2 3.5 14t3.5 18v12l-2.5 15t-2.5 18t-1.5 16t-0.5 8q0 2 -5 11.5t-7 14.5q-1 1 -4.5 6t-7.5 11.5t-8 12t-6 8.5q-1 1 -3 3.5t-3 2.5h-38q-2 0 -9.5 3t-9.5 3q-5 2 -17 4t-14 3h-26
q-6 -1 -16 -2.5t-20 -2.5t-18 -1.5t-9 -0.5q-2 0 -11.5 -5l-13.5 -7q-2 -1 -7.5 -4.5l-12 -8l-12 -8.5t-6.5 -5q-1 0 -2 1t-2 1q0 2 -1.5 5.5t-1.5 5.5q1 1 3.5 6l5.5 11t5.5 12t4.5 9q1 1 4 6t6.5 10t6 9.5t2.5 5.5q1 2 6 10.5l10.5 18.5l10 18t5.5 10l10 14.5t7 12.5
l8 14.5t8 13.5l10 18l15.5 24.5t11.5 16.5q0 1 2.5 6t6 10.5l6.5 10t4 5.5t4.5 5.5l8 10l8 10t4.5 5.5q0 1 0.5 7t0.5 9q0 2 -0.5 8t-0.5 8q-6 6 -13 6q-1 1 -7 1h-14q-4 0 -4 -1q-1 0 -5 -4l-9 -9l-10 -10l-8 -8q-2 -2 -9.5 -12t-9.5 -14q-1 -2 -9 -14.5l-18 -29l-20 -32.5
l-16 -25q-1 -1 -3.5 -5.5t-6 -10t-6 -10t-3.5 -5.5q-1 -2 -6 -9.5t-7 -9.5q-1 -2 -6 -11t-10 -19t-9.5 -18t-5.5 -9t-4 -5l-6 -8l-5.5 -7.5t-3.5 -4.5q-2 -3 -7.5 -12l-11.5 -19.5l-11.5 -19.5t-7.5 -13q-1 -1 -3.5 -6.5l-5.5 -12l-6 -12.5t-4 -7q-1 -2 -6.5 -9.5t-6.5 -9.5
q-2 -2 -7.5 -11l-12 -20l-12 -20.5t-6.5 -11.5q-2 -3 -5.5 -9t-7.5 -12l-7.5 -11t-4.5 -6q-2 -3 -12.5 -14.5l-19.5 -21.5q-12 -12 -12 -27q0 -1 -0.5 -6t-0.5 -7zM748 140q0 -6 0.5 -17.5t0.5 -12.5q0 -2 2.5 -6.5t3.5 -6.5l38 -38q1 -1 6 -3.5l11 -5.5l12 -6t9 -4
q2 -1 8.5 -3l13.5 -4t13.5 -3.5t8.5 -1.5q1 0 7 -0.5t8 -0.5q3 0 9.5 0.5t7.5 0.5q3 0 15.5 2.5t16.5 3.5q1 0 5.5 2.5t6.5 3.5q7 4 19 11.5t13 7.5l32 32q0 1 2.5 6l3.5 7q2 3 4 10t2 9l0.5 6t0.5 9t-0.5 9.5l-0.5 6.5q0 2 -2 11.5t-4 14.5l-3.5 10t-2.5 9q-4 5 -10.5 17
t-8.5 14t-11.5 9.5t-14.5 9.5q-1 1 -9 3.5t-10 2.5q-1 1 -6 3.5t-6 3.5q-2 1 -13 3t-13 3q-1 1 -4.5 3.5l-7.5 5.5l-8 6t-5 4q-3 2 -13 7l-12 6h-13q-2 0 -14 -5.5t-17 -7.5l-7 -3.5t-6 -2.5q-2 -2 -7 -6.5t-6 -6.5q-2 -2 -6.5 -10.5t-9.5 -19l-9.5 -20t-5.5 -13.5
q-3 -6 -7.5 -20.5t-5.5 -17.5q0 -1 -0.5 -11.5t-0.5 -15.5zM41 441q0 -6 0.5 -17.5t0.5 -12.5q0 -2 2.5 -6.5t3.5 -6.5l38 -38q1 -1 6 -3.5l11 -5.5l12 -6t9 -4q2 -1 8.5 -3l13.5 -4t13.5 -3.5t8.5 -1.5q1 0 7 -0.5t8 -0.5q3 0 9.5 0.5t7.5 0.5q3 0 15.5 2.5t16.5 3.5
q1 0 5.5 2.5t6.5 3.5q7 4 19 11.5t13 7.5l32 32q0 1 2.5 6l3.5 7q2 3 4 10t2 9l0.5 6t0.5 9t-0.5 9.5l-0.5 6.5q0 2 -2 11.5t-4 14.5l-3.5 10t-2.5 9q-4 5 -10.5 17t-8.5 14t-11.5 9.5t-14.5 9.5q-1 1 -9 3.5t-10 2.5q-1 1 -6 3.5t-6 3.5q-2 1 -13 3t-13 3q-1 1 -4.5 3.5
l-7.5 5.5l-8 6t-5 4q-3 2 -13 7l-12 6h-13q-2 0 -14 -5.5t-17 -7.5l-7 -3.5t-6 -2.5q-2 -2 -7 -6.5t-6 -6.5q-2 -2 -6.5 -10.5t-9.5 -19l-9.5 -20t-5.5 -13.5q-3 -6 -7.5 -20.5t-5.5 -17.5q0 -1 -0.5 -11.5t-0.5 -15.5zM440 152v38q1 1 3 5.5t4 6.5q3 5 13 14.5l12 11.5
q4 2 16 7t16 5q1 1 15 1h41h13q5 0 7.5 -1t4.5 -2t7 -4q5 -2 8 -3.5l5 -2.5l3.5 -3.5t2.5 -3.5q1 -2 3 -12.5t3 -12.5t6.5 -9.5t6.5 -9.5l0.5 -5t0.5 -7t-0.5 -7.5l-0.5 -5.5q0 -1 -2 -6t-4 -7t-6.5 -9.5t-6.5 -9.5l-6 -6q-16 -12 -33 -19t-37 -7h-7q-5 0 -5 1q-1 0 -8.5 2
t-10.5 4q-7 2 -19 7t-13 6q-3 2 -13 11.5t-12 13.5q-2 2 -4 9t-3 10zM812 129v32q1 3 3 12.5t4 12.5q1 2 3.5 7.5t5.5 11.5t5.5 11.5t4.5 7.5q1 2 5.5 7t6.5 6h19q2 -1 12 -3t13 -4q2 0 6.5 -2.5t6.5 -3.5q3 -2 13 -9.5t12 -9.5t7 -6.5t6 -6.5q2 -2 4 -6.5t2 -5.5
q1 -1 1 -12v-31q0 -15 -3.5 -18t-9.5 -9q-3 -2 -9 -5l-12 -6l-11 -5.5t-6 -2.5t-8.5 -0.5t-11.5 -0.5q-5 0 -14 0.5t-10 0.5q-3 0 -10 2.5t-9 3.5q-2 2 -9.5 9t-9.5 10q-2 2 -4.5 6.5t-2.5 6.5zM105 430v32q1 3 3 12.5t4 12.5q1 2 3.5 7.5t5.5 11.5t5.5 11.5t4.5 7.5
q1 2 5.5 7t6.5 6h19q2 -1 12 -3t13 -4q2 0 6.5 -2.5t6.5 -3.5q3 -2 13 -9.5t12 -9.5t7 -6.5t6 -6.5q2 -2 4 -6.5t2 -5.5q1 -1 1 -12v-31q0 -15 -3.5 -18t-9.5 -9q-3 -2 -9 -5l-12 -6l-11 -5.5t-6 -2.5t-8.5 -0.5t-11.5 -0.5q-5 0 -14 0.5t-10 0.5q-3 0 -10 2.5t-9 3.5
q-2 2 -9.5 9t-9.5 10q-2 2 -4.5 6.5t-2.5 6.5z" />
    <glyph glyph-name=".0139" unicode="&#x2039;" horiz-adv-x="462" 
d="M265 -5l35 37v4q0 2 -5 14q-4 14 -10 30.5t-5 21.5q-2 2 -3.5 11t-3.5 11q1 1 -1.5 6.5t-3.5 6.5q-1 5 -5 18t-6 21q-2 6 -4.5 14.5t-4.5 16.5q-4 6 -11.5 25t-13.5 40t-9 40t3 25q1 1 7.5 11l14.5 22l16 24l13 19q1 1 6 7.5t10 14l9.5 14t5.5 8.5q1 1 3.5 6.5t2.5 6.5
q1 2 7 9.5l13 16.5l14 17.5l11 13.5l3 2.5t3 3.5l7 13.5l6 11.5v7v6q-2 6 -8 13t-11 12q-1 1 -6 1h-6h-8q-5 0 -6 -1q-5 0 -9 -3.5l-10 -8.5l-13.5 -14l-11.5 -12q-1 -1 -8 -10.5t-11 -14.5q-3 -5 -10 -14.5l-14 -19.5l-13 -18.5t-7 -10.5q-2 -4 -9.5 -16t-9.5 -16l-6 -11.5
t-10 -20t-10 -20l-6 -11.5t-5 -11.5t-7.5 -20.5t-6 -20.5t-1.5 -11.5q13 -56 26.5 -103t34.5 -100q2 -9 5.5 -22.5t6.5 -26.5t5.5 -22l2.5 -9z" />
    <glyph glyph-name=".0140" unicode="&#x152;" horiz-adv-x="668" 
d="M10 303v-88q0 -3 1 -10l2 -14t2 -13t1 -7q1 -3 4 -10t7.5 -15l8.5 -15.5t6 -10.5q1 -2 6 -9l11 -15l12 -15.5t9 -10.5q1 -2 5 -6l9 -9l10 -10l7 -7q3 -2 8 -6l10 -8l9 -7.5t5 -3.5q2 -2 12.5 -4t12.5 -3q1 0 6 -3t7 -3h50q2 0 7 3t6 3q1 1 6 0.5t7 -0.5q1 1 6 3.5t6 3.5
q3 1 13 3t13 3q4 5 14.5 21.5l20.5 31.5q2 -3 3.5 -5.5t3.5 -4.5l4.5 -4.5l7.5 -7.5t7.5 -8t5.5 -5q1 -1 6.5 -3t6.5 -3q2 -2 9.5 -10t9.5 -9q2 -2 12.5 -4t12.5 -3q1 0 3.5 -2.5t2.5 -3.5h70q2 0 9.5 3t9.5 3q2 1 7 2t11 2l11.5 2t8.5 1q2 0 9.5 -0.5t9.5 0.5l9 9
q4 4 6 6.5t4 4l4.5 3.5t7.5 5q6 4 8.5 6.5t4.5 4t4 3.5l5 5l10 10q2 2 7 9.5t6 9.5v12q-2 5 -7 7h-31q-1 -1 -6 -3t-7 -4q-2 -1 -9.5 -6t-9.5 -6l-13.5 -7l-11.5 -6q-4 -2 -16 -4t-16 -2q-1 -1 -15 -1h-40q-13 0 -14 1q-3 0 -13 2t-13 4q-1 1 -8.5 5.5t-10.5 7.5
q-1 1 -3.5 3t-2.5 3q-1 1 -5 11.5t-6 17.5q-1 6 -2 9t-3 15q-2 13 -3 17q-1 1 -1 3q2 8 4.5 13.5t4.5 9.5t4.5 13.5t2.5 11.5v63q4 1 8 1h9h27q14 0 29.5 -1t18.5 -1q2 0 13 -2.5t13 -3.5q3 0 9.5 -1l13.5 -2t13 -2t8 -1q1 0 10 -0.5t13 -0.5q5 0 13 0.5l8 0.5q7 0 13 6
q2 1 4 3.5l2 2.5q1 1 1 4v11q0 4 -1 4q0 2 -6 7.5t-13 5.5q-2 1 -11.5 3t-20 3.5t-20 3.5t-11.5 3q-2 0 -9.5 3t-9.5 3q-4 1 -13 2t-19 2t-19 1.5t-12 0.5q-5 0 -16.5 0.5t-24.5 0.5h-16t-14 -1l-10 30.5t-11 29.5q-1 14 -1.5 26.5t-1.5 21.5v19q0 2 2.5 11.5l3.5 13.5
q2 4 4 11t3 8q2 7 6 7h190q2 0 6.5 4.5t5.5 7.5q1 0 1 3v12q0 4 -1 4q0 2 -2.5 6.5t-3.5 6.5q-2 1 -6.5 3.5t-6.5 2.5q-6 1 -24 3t-38.5 4t-38.5 4t-25 2h-76q-1 0 -8 -2.5t-11 -4.5q-5 -2 -10.5 -4.5t-8.5 -7.5q-2 -4 -5.5 -10t-6.5 -12t-5 -11l-2 -5v-26l-10 11.5t-7 8.5
v3q0 7 3.5 10.5t3.5 11.5v7l-3.5 10t-3.5 9l-12 12l-10 7t-9 6t-9.5 3.5t-9.5 2.5q-1 0 -3 0.5t-3 0.5q-2 0 -4.5 -0.5l-2.5 -0.5q-5 0 -14 -1l-18 -2t-16.5 -2t-8.5 -1t-6 -2.5l-7 -3.5q-2 -2 -6.5 -5.5l-10 -7.5t-9.5 -7.5t-5 -5.5q-3 -2 -13 -12t-12 -13q-4 -4 -11 -13.5
t-8 -11.5q-3 -5 -9.5 -17.5t-13 -26.5l-13 -27t-9.5 -18q-1 -3 -5.5 -17.5l-6.5 -20.5q-1 -2 -3.5 -14l-3.5 -17q0 -4 -1 -11l-2 -14.5t-2 -13t-1 -6.5zM67 247v19q0 5 1 15l2 20t2 18t1 10q0 1 1.5 7.5t4 14.5t4.5 15.5t3 12.5q1 3 3 10t3 9q1 3 5.5 12l9.5 19l10 19.5
l7 13.5l3.5 7t5.5 10t6 9t4 5q1 2 5.5 6.5l6.5 6.5l13.5 7t12.5 5q0 1 3 1h11q4 0 5 -1l7.5 -7.5l11.5 -11.5l11.5 -11t7.5 -7q2 -3 10.5 -13t13.5 -18q5 -4 10 -11.5l10 -14.5l19 -38q1 -2 1.5 -4t2.5 -5v-119q0 -3 1 -10t2 -15t2 -15t1 -10q1 -8 3 -30l-4 -12t-3 -8
q0 -1 -2.5 -6l-3.5 -7q-4 -6 -11 -18t-8 -13t-5 -5.5l-9 -10t-10 -10t-8 -6.5q-2 -2 -9.5 -6.5t-9.5 -5.5t-11.5 -3.5l-13.5 -3.5h-13q-2 1 -9.5 3t-9.5 4q-2 1 -9 5.5l-10 6.5q-2 1 -7 5.5l-11 9.5l-11.5 10t-8.5 7q-2 2 -7 6.5t-5 5.5q-1 2 -4 7.5l-6 11.5t-5.5 11.5
t-3.5 7.5q-1 3 -3 8.5t-4.5 11.5t-4 11t-1.5 7q-1 4 -3 21t-3 24z" />
    <glyph glyph-name="quoteright" unicode="&#x2019;" horiz-adv-x="521" 
d="M345 563v-7q-1 -9 -1.5 -13t-1 -6.5t-1.5 -6t-4 -12.5l-3.5 -10.5l-5.5 -16.5l-6 -17.5t-4 -12.5q-1 -2 -4 -9.5l-6.5 -15.5t-6 -15.5t-2.5 -9.5t-0.5 -8t-1.5 -12.5t-1.5 -12t-0.5 -6.5q2 0 11.5 0.5t11.5 0.5q1 0 3 2.5t3 3.5q3 3 8 10l10 14l9 13t5 7l13 26q1 3 4 10
l6 13.5t5.5 12.5t2.5 8l7 10.5t7 15.5q2 4 4.5 13.5t2.5 11.5v7q0 7 0.5 15t0.5 16v14q0 8 -0.5 21.5t-0.5 14.5l-19 37h-13l-50 38q-1 0 -3 0.5t-3 0.5q-2 0 -4.5 -0.5l-2.5 -0.5q-3 -2 -10.5 -9.5t-8.5 -9.5q0 -1 -0.5 -7t-0.5 -9t0.5 -9t0.5 -7l8 -8t11 -10q1 -1 6.5 -3
t6.5 -3l6 -6q6 -6 6 -13q0 -2 1 -7.5t2.5 -12.5t2.5 -14t1 -10v-6z" />
    <glyph glyph-name="quotedblleft" unicode="&#x201c;" horiz-adv-x="521" 
d="M345 563v-7q-1 -9 -1.5 -13t-1 -6.5t-1.5 -6t-4 -12.5l-3.5 -10.5l-5.5 -16.5l-6 -17.5t-4 -12.5q-1 -2 -4 -9.5l-6.5 -15.5t-6 -15.5t-2.5 -9.5t-0.5 -8t-1.5 -12.5t-1.5 -12t-0.5 -6.5q2 0 11.5 0.5t11.5 0.5q1 0 3 2.5t3 3.5q3 3 8 10l10 14l9 13t5 7l13 26q1 3 4 10
l6 13.5t5.5 12.5t2.5 8l7 10.5t7 15.5q2 4 4.5 13.5t2.5 11.5v7q0 7 0.5 15t0.5 16v14q0 8 -0.5 21.5t-0.5 14.5l-19 37h-13l-50 38q-1 0 -3 0.5t-3 0.5q-2 0 -4.5 -0.5l-2.5 -0.5q-3 -2 -10.5 -9.5t-8.5 -9.5q0 -1 -0.5 -7t-0.5 -9t0.5 -9t0.5 -7l8 -8t11 -10q1 -1 6.5 -3
t6.5 -3l6 -6q6 -6 6 -13q0 -2 1 -7.5t2.5 -12.5t2.5 -14t1 -10v-6z" />
    <glyph glyph-name="quotedblright" unicode="&#x201d;" horiz-adv-x="521" 
d="M345 563v-7q-1 -9 -1.5 -13t-1 -6.5t-1.5 -6t-4 -12.5l-3.5 -10.5l-5.5 -16.5l-6 -17.5t-4 -12.5q-1 -2 -4 -9.5l-6.5 -15.5t-6 -15.5t-2.5 -9.5t-0.5 -8t-1.5 -12.5t-1.5 -12t-0.5 -6.5q2 0 11.5 0.5t11.5 0.5q1 0 3 2.5t3 3.5q3 3 8 10l10 14l9 13t5 7l13 26q1 3 4 10
l6 13.5t5.5 12.5t2.5 8l7 10.5t7 15.5q2 4 4.5 13.5t2.5 11.5v7q0 7 0.5 15t0.5 16v14q0 8 -0.5 21.5t-0.5 14.5l-19 37h-13l-50 38q-1 0 -3 0.5t-3 0.5q-2 0 -4.5 -0.5l-2.5 -0.5q-3 -2 -10.5 -9.5t-8.5 -9.5q0 -1 -0.5 -7t-0.5 -9t0.5 -9t0.5 -7l8 -8t11 -10q1 -1 6.5 -3
t6.5 -3l6 -6q6 -6 6 -13q0 -2 1 -7.5t2.5 -12.5t2.5 -14t1 -10v-6z" />
    <glyph glyph-name=".0152" unicode="&#x2dc;" 
d="M91 574q0 2 1 5t1 4t2.5 6.5l6 13l7 14.5t5.5 10l5.5 10.5t6.5 11.5q2 2 6 7.5t5 7.5q3 3 8.5 8t6.5 5q3 2 8 2.5t7 0.5l11 -4l11 -2q1 -2 5.5 -5.5t6.5 -5.5q2 -1 7 -11.5t7 -11.5q2 -4 8.5 -13.5t10.5 -12.5q2 -3 7.5 -9.5t6.5 -7.5q4 -5 13.5 -13t11.5 -9l22 -7l25 -8
q2 0 10.5 -1t11.5 1q3 0 10 2t9 4q3 2 11.5 9t10.5 9q0 1 3 7.5t4 10.5l5 13t3 10t2.5 11.5l5.5 20.5t5 20.5t2 11.5t2 6.5t4 6.5l12 8q1 2 4.5 3l3.5 1q2 -1 5 -3.5t3 -4.5q2 -6 2.5 -20.5t0.5 -19.5l-6 -35l-5 -38q-2 -4 -5 -15.5t-5 -14.5q-1 -2 -8.5 -14.5l-10.5 -17.5
q-12 -20 -22 -24q-5 -5 -11 -7t-10 -3q-5 -2 -13 -2q-7 0 -9 -1l-37 12l-35 11q-3 1 -8 3.5l-10.5 5.5l-10 5.5t-5.5 4.5q-1 1 -6 5.5t-11.5 11.5t-9.5 11q-11 11 -21 25.5t-21 25.5q-2 -2 -10 -6t-10 -6q-1 -1 -3 -5.5t-2 -5.5q-4 -5 -10.5 -15t-8.5 -12q-2 -3 -10.5 -10
t-10.5 -9l-5 2l-4 1q-1 2 -3.5 7.5t-2.5 8.5v3q0 4 1 6z" />
    <glyph glyph-name=".0155" unicode="&#x203a;" 
d="M201 581l-20 -49q0 -2 1 -4t10 -11q8 -12 19 -25.5t12 -18.5q2 -1 7 -8.5t7 -9.5q-1 -1 3.5 -5.5t5.5 -4.5q3 -5 10.5 -15.5t12.5 -18.5q5 -5 9.5 -11.5t9.5 -14.5q6 -5 15 -21t16 -34t10 -34.5t-2 -23.5q-2 -2 -7 -12l-12 -23t-13.5 -26.5t-10.5 -20.5q-2 -2 -9.5 -15
t-12.5 -23l-6.5 -11.5t-2.5 -9.5q-1 -3 -6 -11t-11.5 -17.5l-13 -19t-9.5 -14.5l-2.5 -3t-2.5 -4q-2 -4 -5.5 -14t-4.5 -12l1 -7v-6q2 -6 9.5 -12.5l12.5 -10.5q1 -2 6 0h6l8 1l4.5 1.5l1.5 0.5q5 1 8.5 5t9.5 9l12 15l10 13q0 1 6 11t10 16q2 5 8 15.5l12 21l11 19.5t6 11
q2 5 8 17l8 16q1 3 4.5 12.5l8 21l8 21t4.5 12.5q1 2 4 11.5t5.5 21t4 21.5t0.5 12q-18 54 -41 99.5t-60 87.5l-18.5 27.5l-19 29t-8.5 13.5z" />
    <glyph glyph-name=".0156" unicode="&#x153;" horiz-adv-x="533" 
d="M2 242v-25q0 -1 1 -7.5t2.5 -14.5t4 -16.5t4.5 -12.5q6 -26 17.5 -48.5t25.5 -45.5q1 -2 6 -9.5t7 -9.5q0 -2 2.5 -7t3.5 -6q1 -6 6 -6q1 -1 6.5 -0.5t6.5 0.5q1 -1 4.5 -4t8 -6.5l8 -6t4.5 -2.5q1 -1 11 -3t15 -4q1 0 6.5 -1l11.5 -2l11.5 -2t7.5 -1h7l13.5 3.5
t11.5 2.5q1 1 6.5 4l12.5 6.5t12.5 6t6.5 2.5q2 1 10 3t9 4q2 2 4 12t2 13v1t1 3l10 -16t11 -16q1 -2 9 -7t10 -6q0 -1 2.5 -3.5t3.5 -2.5q2 -1 14 -3t18 -4q4 0 11 -1l14 -2t12.5 -2t6.5 -1h26q22 -1 42.5 2t37 7.5t27 8.5t13.5 6l6 6t12 11l7 7t3 11q0 9 3 12q3 5 0 8
q1 1 -2 4l-6 6q-2 0 -2 -1h-17q-5 -1 -13 -4l-17.5 -6.5l-18 -6.5t-13.5 -4q-8 -3 -31 -3.5t-49 -0.5h-21l-12 6t-13 7t-13 12t-12 13q-3 4 -10 16t-9 16l19 19q1 1 6.5 6t12 10l12 9.5t7.5 5.5l10.5 10t15.5 15.5l15 15.5t9 10q2 2 6.5 9l6.5 10l5.5 11.5l7.5 15.5l7.5 15
l4.5 9q2 2 4 12t2 13q1 1 1 11v30q0 9 -1 9q0 3 -5 13t-7 13q-1 1 -11 8.5t-15 10.5q-1 1 -5.5 3t-6.5 3q-3 1 -13 3.5t-12 2.5q-1 0 -3 0.5t-3 0.5q-2 0 -4.5 -0.5l-2.5 -0.5q-5 0 -12 -1l-14 -2t-12.5 -2l-5.5 -1q-1 0 -5 -3l-9 -7l-10 -8t-8 -7l-19 -19q-1 -2 -4.5 -7
l-7.5 -11l-8 -11.5t-5 -8.5q-2 -2 -6 -10q-3 4 -3 7q-1 1 -6.5 7l-12.5 13l-14 14t-11 10q-5 4 -14.5 11t-11.5 8l-5.5 0.5t-8.5 0.5t-9.5 -0.5t-7.5 -0.5q-2 0 -9.5 -3t-9.5 -3t-7.5 -1t-12 -2.5t-12 -2.5t-6.5 -1q-4 -1 -13.5 -5.5t-11.5 -6.5q-1 -1 -5.5 -5l-10 -9
t-10 -10t-6.5 -8q-2 -2 -6.5 -9.5t-6.5 -9.5q-1 -2 -5 -14l-6 -18q-2 -3 -4 -10t-3 -9q-1 -5 -2.5 -19t-2.5 -19zM230 217q0 -11 1.5 -21.5t3.5 -21.5q-1 -5 -1 -10v-10v-6q0 -2 -5 -14t-8 -18q-2 -5 -6.5 -14.5t-5.5 -10.5q-3 -3 -12.5 -10.5t-13.5 -8.5q0 -1 -4 -1h-11
q-3 0 -4 1q-3 1 -15 8.5t-16 10.5q-3 2 -9 7.5l-12 11.5t-11 11.5t-6 7.5q-1 0 -6 12.5t-7 18.5q-1 5 -4 14.5t-5.5 16t-2.5 7.5q-1 1 -1 11v33q0 12 1 13q0 1 2 10.5t4 14.5q1 4 3.5 11t2.5 8l6.5 10t6.5 9q3 3 12.5 10t12.5 9l2.5 0.5t3.5 0.5q2 0 4 -0.5t3 -0.5
q2 0 6.5 -2.5t6.5 -3.5q1 -1 6 -6.5t6 -6.5q1 0 6.5 -1t12 -2t12 -2t7.5 -1q2 -1 6.5 -3t6.5 -3q1 -2 3.5 -8.5l5.5 -14.5l6.5 -17t5.5 -16v-33zM306 296q2 5 9.5 16.5t9.5 15.5q1 2 5.5 6.5l10 10t10 9.5t6.5 6q3 2 12.5 7t12.5 5q5 0 13 -6.5t12 -12.5q0 -1 -2 -13t-4 -18
q-1 -2 -3 -9.5t-3 -9.5q-12 -29 -31.5 -50.5t-44.5 -38.5q-2 -2 -7 -4t-6 -2h-2v9q0 1 -4 15.5t-7 26.5q1 5 6 18t7 19z" />
    <glyph glyph-name=".0159" unicode="&#x178;" horiz-adv-x="457" 
d="M199 35q0 -2 0.5 -5.5t0.5 -4.5t2.5 -5.5t3.5 -6.5l7.5 -7.5t11.5 -5.5h32l6 6q2 4 7 11t6 8q1 2 3 11.5l3 14.5q0 2 1 9.5l2 15.5l2 15.5t1 9.5q1 3 2.5 10t4 15.5t4 15.5t2.5 10q2 7 10.5 32.5l18.5 55.5l19.5 59t14.5 43q1 2 3.5 8.5l5.5 14.5t5.5 15.5t4.5 11.5
q1 4 6.5 18t12.5 30t12.5 30t6.5 17q1 2 3.5 9.5t3.5 9.5q2 2 6 13q5 11 6 13t3 9l3 7.5l1 2.5v6q-2 5 -5 10.5t-8 8.5q-2 1 -6.5 3.5t-6.5 2.5h-6q-2 -1 -6.5 -3t-6.5 -3q-5 -5 -9 -9.5t-10 -12.5q-5 -6 -9.5 -16t-9.5 -19l-7.5 -18l-11.5 -28l-11.5 -29t-7.5 -20
q-2 -7 -8 -24l-13 -36l-13.5 -36t-9.5 -24q-2 -2 -6.5 -9.5t-6.5 -9.5q-2 -3 -6.5 -8t-5.5 -5h-26q-6 3 -13 5t-14 5l-19.5 12l-16.5 10q-1 0 -3 2.5t-3 3.5l-10 13l-12 16l-10.5 14.5t-5.5 7.5t-4.5 7.5l-7.5 14.5t-7.5 16t-5.5 12q-1 1 -3 8.5t-4 10.5q-2 6 -5 16l-6 20.5
l-5.5 18.5t-2.5 9q0 2 -1 6.5t-2 9.5t-2 9.5t-1 5.5v76q0 3 -2.5 10t-3.5 9t-6 4t-7 3h-19l-13 -13q-1 -2 -3 -6.5t-3 -6.5v-10q0 -6 -0.5 -13.5t-0.5 -14.5v-22q0 -8 0.5 -15.5t0.5 -13.5v-6l2 -10t4 -15q1 -4 3 -11t4.5 -14t4 -12.5t1.5 -6.5q1 -5 5.5 -17.5l9.5 -26.5
t10 -26.5t7 -18.5q1 -2 3 -6.5t3 -6.5l8.5 -11.5l11.5 -15.5l11 -14.5t7 -8.5q1 -2 5.5 -6.5l9.5 -9.5t10 -9.5t7 -6.5q1 -1 9 -6t10 -7l6 -6q2 -1 6.5 -3t6.5 -3q1 -1 6.5 -2.5t12 -4t12 -4t7.5 -2.5q1 -1 8 -5.5l10 -6.5l7 -7v-6q0 -2 -2 -8.5l-4.5 -14l-4.5 -14t-2 -7.5
q0 -2 -2 -10.5t-4 -18.5t-4 -18.5t-2 -9.5q-2 -4 -4 -14t-3 -12q0 -2 -3 -9.5t-3 -9.5l-0.5 -3.5t-0.5 -5.5zM115 727v-18q0 -7 2 -9q0 -6 10 -7q3 -3 10.5 -5.5t8.5 -3.5h31l11 3.5t9 5.5q2 1 5.5 6.5t4.5 9.5q0 1 1 2.5l1 1.5q0 1 -1 3l-1 2q-1 4 -4.5 12.5t-5.5 11.5
l-4.5 4.5t-5.5 3.5l-11 1t-16 1t-13.5 -1t-10.5 -1q-4 -2 -10.5 -8t-8.5 -9q-2 0 -2 -6zM326 717v-14q0 -5 1 -6q0 -5 6 -6q2 -2 6.5 -4t5.5 -3h19q2 1 7 3t6 4q1 1 3 5.5t3 6.5q0 1 0.5 2l0.5 1q0 1 -0.5 2.5l-0.5 1.5q-1 3 -3 10t-3 9q-1 1 -3 3.5t-3 2.5t-7.5 0.5
t-9.5 0.5t-8.5 -0.5t-6.5 -0.5q-2 -1 -6.5 -6t-5.5 -7q-1 0 -1 -5z" />
    <glyph glyph-name="sterling" unicode="&#xa3;" horiz-adv-x="790" 
d="M315 67h13q2 -1 6.5 -3t6.5 -3q2 -2 9 -7.5l15.5 -12l16 -12t9.5 -6.5q2 -2 7.5 -6l11.5 -8t11.5 -7t7.5 -4t6.5 -3t6.5 -3t12.5 -3.5t12.5 -2.5q1 0 6.5 -2l12 -4.5l12 -4.5t7.5 -2h51l7.5 2.5t11.5 3.5q6 2 18 7t13 6l13 8.5t12 9.5q8 7 20 18.5l23 22.5l19 19.5l8 8.5
l13 51q0 2 -5 6.5t-8 6.5h-19l-2.5 -2.5t-3.5 -4.5q-15 -8 -27 -22l-23.5 -28t-23.5 -26.5t-27 -17.5q-3 -2 -13 -4t-13 -3h-44q-2 1 -12 3t-13 4q-2 1 -12 5.5t-14 6.5q-2 2 -9 6.5t-9 6.5l-19 19q-2 1 -13 6t-13 6l-20 20q-2 2 -8.5 10t-9.5 15v19q1 1 5.5 13t7.5 18
q1 3 6.5 16l11.5 28t12 28.5t8 16.5q1 1 4 9.5l7 20l8 22.5t6 17q1 1 3 7l4 12.5t3.5 12t2.5 6.5q1 3 5.5 13t6.5 13l3.5 3.5t3.5 2.5h12q2 0 10.5 -1t18.5 -2t18 -2t10 -1q1 -1 12 -1h29q9 0 10 1q2 0 9.5 2t9.5 4t9.5 9t9.5 10q1 1 6.5 11.5t8.5 18.5l3 6l1 2q1 2 3.5 12
t2.5 13v19q0 2 -2.5 7t-3.5 6q-1 0 -4 0.5t-5 0.5t-6 -0.5l-4 -0.5q-2 -1 -6.5 -6t-6.5 -7q-1 -2 -4.5 -7.5l-7.5 -12t-8 -12t-5 -6.5l-13 -13h-76q-2 1 -9.5 3t-9.5 4v44q0 1 3 13.5l7 29t8.5 33t7.5 25.5q0 10 6 18.5t6 13.5l19 19h13l13.5 -6.5t11.5 -6.5q2 -1 9 -10.5
t10 -14.5q1 -1 3.5 -6.5t3.5 -6.5q2 -4 7 -11t5 -8h19q3 1 10 3t9 4q4 2 11 9t8 9q0 1 0.5 5.5t0.5 6.5t-0.5 7.5t-0.5 6.5t-2.5 5.5t-3.5 6.5l-7 7q-1 2 -6 9.5t-6 9.5l-19 19q-1 0 -6 2.5l-7 3.5q-5 2 -12 5.5t-14 6.5t-12.5 5l-5.5 2q-1 0 -12 0.5t-16 0.5q-6 0 -17 -0.5
t-12 -0.5q-6 -2 -14 -8.5t-14 -13.5q-8 -7 -17.5 -17l-11.5 -12t-6.5 -11.5t-5.5 -13.5q-1 -2 -2 -7.5l-2 -11.5l-2 -12t-1 -7q-1 -5 -5.5 -22l-9.5 -37l-9.5 -39l-6.5 -28q-2 -4 -4 -11t-3 -8q0 -1 -5 -3.5l-7 -3.5q-2 0 -13 -2.5t-13 -3.5q-3 -1 -10 -3t-9 -3
q-3 -2 -9 -4.5t-12 -5.5l-11 -5.5t-6 -3.5l-25 -25q0 -1 -0.5 -4t-0.5 -5t0.5 -6l0.5 -4q0 -1 2.5 -3.5l3.5 -3.5l7 -3.5t6 -2.5h13q1 0 7.5 2l14 4.5l14 4.5t8.5 2t9 -1t9 -1q0 -2 0.5 -8.5t0.5 -8.5t-2.5 -11.5t-3.5 -14.5q-5 -16 -11.5 -31.5t-14.5 -31.5
q-1 -2 -3.5 -8.5t-6 -14t-6 -14t-3.5 -7.5q-2 -5 -6.5 -14.5t-5.5 -10.5q-2 -2 -6.5 -7t-6.5 -6q-3 2 -15 6.5t-16 6.5h-19q-5 -1 -14.5 -3.5t-11.5 -3.5t-9.5 -8.5t-9.5 -10.5l-5.5 -11t-6.5 -14q-1 -2 -3.5 -9l-3.5 -10q-1 -5 -3.5 -14.5t-2.5 -10.5q0 -2 -0.5 -12
t-0.5 -15t0.5 -14t0.5 -10q0 -2 5 -11l8 -14q0 -1 2.5 -3.5t3.5 -2.5q9 -6 20 -10t22 -4q2 0 5 0.5t4 0.5q1 1 6.5 3.5l11.5 5.5l11.5 5.5t7.5 4.5q2 1 7 6.5t6 6.5q2 0 11.5 2.5z" />
    <glyph glyph-name=".0165" unicode="&#xa5;" 
d="M109 267l-1 -2q2 -3 4.5 -8t4.5 -5l13 -3l17 -2q2 -1 11.5 -1.5t20.5 -1t20.5 -1t11.5 -0.5h4l8 -2h8q-2 -11 -3.5 -21.5t-3.5 -19.5q-27 1 -50 1.5t-28 0.5l-7 1l-9 2l-10 1l-4 1q-3 0 -5.5 -1t-5.5 -3q-1 -1 -3 -2t-2 -2q-2 -3 -6.5 -13t-6.5 -15v-3l-1 -2q2 -3 4.5 -8
t4.5 -5l13 -3l17 -2q2 -1 11.5 -1.5t20.5 -1t20.5 -1t11.5 -0.5h4l8 -2h9q-4 -13 -8.5 -26l-6.5 -19l-5 -15t-7 -16q0 -2 -3.5 -8.5t-7 -14t-7 -14t-3.5 -8.5q-1 0 -1.5 -1l-0.5 -1q-1 -1 -0.5 -1.5l0.5 -0.5q2 -4 4.5 -11t3.5 -8t5.5 -4t6.5 -3l3 -0.5t5 -0.5h5t4 -1
q1 0 6 1t7 2q3 0 5 1.5t3 1.5q1 2 5 9t6 9q0 1 2.5 5l5.5 8.5l5.5 8t2.5 4.5q3 2 7 12t6 14l3.5 11t6 17t6 18t3.5 13l4 12v5h17q2 -1 4 -1q3 0 6 -1h7h13q7 0 13 0.5t8 0.5q2 -1 9.5 0.5t9.5 1.5q3 2 11 4.5t10 4.5l2.5 3.5t4.5 5.5v7l-14 18q-1 2 -4 5t-5 3l-9 2l-11 1h-6
t-9 -0.5t-9 -1t-5 0.5q-5 -1 -10.5 0t-8.5 1q-8 0 -13 1q2 11 3.5 21.5t3.5 21.5h21h5q5 0 10 0.5t9 0.5h7h7h13q7 0 13 0.5t8 0.5q2 -1 9.5 0.5t9.5 1.5q3 2 11 4.5t10 4.5l2.5 3.5t4.5 5.5v7l-14 18q-1 2 -4 5t-5 3l-9 2l-11 1h-6t-9 -0.5t-9 -1t-5 0.5q-2 0 -8 -0.5
l-12.5 -1t-12.5 -0.5h-7h-9q-4 0 -9 1q1 5 1 7q0 3 1 5q0 2 1 10t2 18q5 1 9.5 1.5t5.5 0.5q3 0 10 4l13 8l12 8q5 3 20 17t32 44q11 19 16.5 34.5t8 27t3 19t1.5 11.5q1 0 3 10.5t3.5 22.5t3 22.5t1.5 11.5q2 7 -4 13q-4 6 -10 10.5t-12 5.5t-12 -3t-9 -14
q-3 -8 -8.5 -30.5l-11.5 -45.5l-3 -8t-7 -17.5t-7 -18t-4 -9.5l-39 -62l-6 -3q-2 -1 -3 -2t-2 -1q-2 -1 -8 -2t-13 -2v1h-6l-5 2h-9q-8 3 -19 10t-13 9q-5 1 -12 7t-9 8l-3 4l-7 9l-6 9l-7 7l-6 10l-7 10q-4 4 -6 8.5t-3 5.5q-2 1 -5 5.5t-6 10.5t-6 11t-4 8q-1 2 -2.5 9
t-3.5 10q0 4 -2 12t-3.5 17t-3 17t-1.5 10q-2 2 0 9t7 9q2 1 9.5 4.5t8.5 5.5t3 5.5t4 5.5q0 1 1 3.5t1 3.5q0 2 -1 7.5t-1 6.5l-8 9l-6 9q-2 2 -7 4t-8 3q0 1 -4 1h-4q-5 1 -14 1q-8 0 -9 -1q-1 0 -7 -3.5t-9 -6.5q-3 -1 -9 -4.5l-6 -3.5q-2 -3 -6 -13t-4 -15v-14t2 -20
q3 -28 11 -54q0 -5 4.5 -19t7.5 -25q3 -7 4 -9.5t4 -12.5q4 -7 4 -10q2 -2 4.5 -7l5 -10t5 -9t3.5 -5l3 -4l4 -5q3 -5 9.5 -13t14 -15.5t13 -14t7.5 -8.5t9 -8t10 -8q5 -2 14.5 -8.5t14.5 -7.5l4 -1.5l9 -3.5q0 -11 0.5 -28t-0.5 -19v-1q-26 1 -46.5 1.5t-25.5 0.5l-7 1
l-9 2l-10 1l-4 1q-3 0 -5.5 -1t-5.5 -3q-1 -1 -3 -2t-2 -2q-2 -3 -6.5 -13t-6.5 -15v-3z" />
    <glyph glyph-name="section" unicode="&#xa7;" horiz-adv-x="2189" 
d="M1172 20l7 13q-15 -6 -26 -6.5t-26 -0.5h-24q-6 7 -7 11.5t-1 12.5q0 24 10.5 45t27.5 36.5t38.5 25t44.5 9.5q0 -21 -12.5 -32t-27 -19.5t-27 -19t-12.5 -31.5v-3q23 9 38.5 21t28.5 25.5l26 28t31 28.5l1.5 0.5t2.5 0.5q9 0 10 -8.5t1 -14.5q0 -11 -6 -23t-14.5 -24.5
l-16.5 -24.5t-12 -23q-1 -2 -4 -11.5l-6.5 -20l-6.5 -19.5t-4 -10q-3 -3 -11.5 -18t-18 -33.5l-19 -36l-13.5 -24.5l-7.5 -11.5l-12 -18.5l-12.5 -19t-9 -13q-10 -14 -14 -17.5t-16 -3.5q-25 0 -25 28v117q0 19 13 33t32 24t40.5 16.5t38.5 10.5zM119 23q0 12 -7.5 23.5
t-7.5 24.5q0 19 11 33t26 24.5t31.5 19t28.5 16.5q4 3 10.5 9t14 12t15 10.5t15.5 4.5v-36q34 -12 52 -29.5t18 -52.5q0 -71 -72 -71q-13 0 -22.5 2.5t-18.5 5.5t-18 7t-21 7q-4 -11 -14 -24.5l-20.5 -27.5l-20.5 -28t-14 -24q-2 -2 -7.5 -10t-6.5 -10q-2 -4 -10 -18
l-17 -30l-17.5 -30.5t-10.5 -18.5q-4 -7 -9 -8t-13 -1q0 31 12 61t29 57.5t34.5 52.5t29.5 46v3zM1158 -18q-31 0 -48 -11.5t-25.5 -30t-10 -43t-1.5 -50.5h9q1 0 4.5 4.5t8 11.5l8.5 13.5l7 11.5l13.5 26l16 31l13 26zM1708 53q0 22 8.5 44.5t23 40.5t34.5 29.5t43 11.5
q12 0 23.5 -2t19.5 -13q0 -4 0.5 -15.5t0.5 -15.5q0 -37 -20 -59t-57 -34v-7q35 3 66 16.5t54 36t36.5 53t13.5 66.5h-53q-2 0 -4.5 5.5t-2.5 8.5q3 11 14 16t24.5 8t26 6.5t18.5 11.5q10 10 12 23.5t4 25.5t8 20.5t24 8.5v-81q10 0 28 1t35.5 -1t30 -9.5t12.5 -25.5h-106
q-11 0 -19 -16t-14.5 -40.5t-12 -52.5t-11.5 -52.5t-13 -40.5t-16 -16t-13 6t-5.5 14.5t-0.5 16.5t2 12q-34 -33 -66.5 -44.5t-79.5 -11.5q-26 0 -47 13t-21 42zM1382 52q14 0 29.5 -7.5t15.5 -24.5q0 -14 -18 -14q-10 0 -15.5 4.5t-8 11.5t-3 15t-0.5 15zM359 33q0 2 0.5 7
t0.5 7l16.5 34.5l24.5 51.5l24.5 51.5l16.5 34.5q1 3 4.5 15l8 26.5t9 26.5t6.5 15q1 3 5.5 13.5l9.5 22.5t10.5 23.5t8.5 16.5q8 14 21 29.5t31 15.5q0 -15 -2.5 -24.5t-6.5 -18t-9.5 -18.5t-12.5 -26q-2 -5 -10 -26.5l-17.5 -45.5l-17.5 -45.5t-10 -26.5t-7 -15.5
l-10.5 -22.5l-10.5 -23t-7 -15v-7q20 14 43.5 34.5l39.5 34.5h25q0 -15 -4 -28.5t-9 -26t-9 -25.5t-4 -27q0 -12 8 -16t17 -5.5t17 -4.5t8 -14q0 -3 -0.5 -10.5t-7.5 -7.5h-69l-7 7q-11 16 -9.5 31.5l3.5 36.5q-2 0 -7 -2.5l-7 -3.5q-5 -3 -17 -13l-25.5 -21l-25 -21
t-15.5 -14q-1 0 -3 -0.5t-4 -0.5q-10 0 -12 6t-2 15zM579 40q0 19 3.5 39t12 36.5t23 27t35.5 10.5q0 -15 -4.5 -27.5t-10 -25t-10 -25t-4.5 -26.5q10 0 26.5 -2t25.5 7q1 1 2 5t2 8.5l2 9t1 5.5q4 11 15 35t26 53l32.5 60t36 56t36 41.5t31.5 16.5q7 0 23.5 -2t33.5 -5.5
t30 -9t13 -11.5q0 -11 -8.5 -13t-17.5 -2h-10q-11 0 -20.5 0.5t-20.5 7.5q-26 -63 -63.5 -112.5t-88.5 -94.5q-5 -9 -9.5 -20t-4.5 -22t8 -12.5t17 -1.5q16 0 24 8t12 20t7 25.5t9 25.5t17.5 20t33.5 8q0 -15 -4.5 -27.5t-9.5 -25t-9.5 -25t-4.5 -26.5q8 0 22.5 -2t22.5 7
q12 15 17 40t11.5 49t18.5 42t38 18q0 -16 -4.5 -30.5t-10.5 -28.5t-10.5 -28.5t-4.5 -30.5v-3q28 20 54.5 46t48.5 50q1 0 3.5 0.5t3.5 0.5q11 0 13 -6.5t2 -15.5q0 -12 -3.5 -24t-7.5 -23.5t-7.5 -23.5t-3.5 -25v-14q6 0 13 -0.5t13.5 -2.5t11 -6.5t4.5 -11.5q0 -3 -1 -8
t-6 -5h-55q-3 0 -6.5 3.5t-6.5 8t-5.5 9t-2.5 6.5v10q0 10 1.5 22.5t1.5 15.5h-10q-3 -4 -13 -14l-21 -21l-21 -20.5t-14 -12.5q-2 -2 -6.5 -4.5t-6.5 -2.5h-200l-7 7h-3h-4l-14 -7h-75q-5 0 -6.5 8t-1.5 13v6zM1488 33v14q3 7 9 24.5t12 37.5t12 37.5t9 24.5q11 32 44 32
q0 -16 -5 -30.5t-10.5 -28.5t-10.5 -28.5t-5 -30.5v-3q28 20 54.5 46l49.5 50l2.5 0.5t4.5 0.5q10 0 12 -6.5t2 -15.5q0 -12 -3.5 -24t-7.5 -23.5t-7.5 -23.5t-3.5 -25q0 -2 0.5 -7t0.5 -7q5 0 12.5 -0.5t14 -2.5t11 -6.5t4.5 -11.5q0 -3 -1 -8t-7 -5h-55q-2 0 -5.5 3.5
t-7 8t-6 9t-2.5 6.5q0 3 0.5 10l1 14.5l1 14.5t0.5 9h-9l-13.5 -14l-20.5 -21l-21 -20.5t-14 -12.5q-7 -6 -12 -7t-12 -1q-12 0 -15 5t-3 16zM167 102q-14 -8 -21.5 -16t-7.5 -22q0 -1 0.5 -5t0.5 -5l14 22.5t14 25.5zM194 68q13 -11 23 -13t24 -2q6 0 15 1t16.5 4t13 8.5
t5.5 14.5q0 20 -16.5 31.5t-34.5 11.5q-2 0 -6.5 -0.5l-4.5 -0.5zM1833 145q-14 0 -28.5 -6t-27 -15.5t-20.5 -22.5t-8 -27q1 0 4 0.5t4 0.5q4 1 11 3l13.5 4t11.5 4l5 2q4 3 10 8t11.5 10.5t9.5 10t4 6.5v22zM687 338q5 0 18 -0.5t27 -3t24.5 -7t10.5 -11.5q0 -11 -8.5 -13
t-17.5 -2h-10q-22 0 -33 7t-11 30z" />
    <glyph glyph-name=".0168" unicode="&#xa8;" 
d="M119 719v-18q0 -7 2 -9q0 -6 10 -7q3 -3 10.5 -5.5t8.5 -3.5h31l11 3.5t9 5.5q2 1 5.5 6.5t4.5 9.5q0 1 1 2.5l1 1.5q0 1 -1 3l-1 2q-1 4 -4.5 12.5t-5.5 11.5l-4.5 4.5t-5.5 3.5l-11 1t-16 1t-13.5 -1t-10.5 -1q-4 -2 -10.5 -8t-8.5 -9q-2 0 -2 -6zM330 709v-14
q0 -5 1 -6q0 -5 6 -6q2 -2 6.5 -4t5.5 -3h19q2 1 7 3t6 4q1 1 3 5.5t3 6.5q0 1 0.5 2l0.5 1q0 1 -0.5 2.5l-0.5 1.5q-1 3 -3 10t-3 9q-1 1 -3 3.5t-3 2.5t-7.5 0.5t-9.5 0.5t-8.5 -0.5t-6.5 -0.5q-2 -1 -6.5 -6t-5.5 -7q-1 0 -1 -5z" />
    <glyph glyph-name=".0169" unicode="&#xa9;" horiz-adv-x="2189" 
d="M1172 28q-17 -4 -38.5 -10.5t-40.5 -16t-32 -23.5t-13 -33v-117q0 -28 25 -28q12 0 16 3.5t14 17.5q3 4 9 13l12.5 19l12 18.5l7.5 11.5q4 7 13 24.5l19 36l18.5 33.5t11.5 18q1 1 4 9.5l6.5 19l6.5 20t4 11.5q4 11 12 23l16.5 24.5t14.5 24.5t6 23q0 6 -1 14.5t-10 8.5
q-1 0 -2.5 -0.5l-1.5 -0.5q-18 -14 -31 -28.5l-26 -28t-28.5 -25.5t-38.5 -21v3q0 21 12.5 31.5t27 19t27 19.5t12.5 32q-23 0 -44.5 -9.5t-38.5 -25t-27.5 -36.5t-10.5 -45q0 -8 1 -12.5t7 -11.5h24q15 0 26 0.5t26 6.5zM119 31v-3q-12 -21 -29.5 -45.5t-34.5 -52
t-29 -57.5t-12 -61q8 0 13 1t9 8q2 4 10.5 18.5l17.5 30.5l17 30t10 18q1 2 6.5 10t7.5 10q4 11 14 24.5l20.5 27l20.5 27t14 24.5q12 -3 21 -7t18 -7t18.5 -5.5t22.5 -2.5q72 0 72 71q0 35 -18 52.5t-52 29.5v36q-8 0 -15.5 -4.5t-15 -10.5t-14 -12t-10.5 -9
q-12 -8 -28.5 -16.5t-31.5 -19t-26 -24.5t-11 -33q0 -13 7.5 -24.5t7.5 -23.5zM1158 -9l-5.5 -11l-13 -26l-16 -31l-13.5 -26l-7 -11.5l-8.5 -13.5t-8 -11.5t-4.5 -4.5h-9q0 26 1.5 50.5t10 43t25.5 30t48 11.5zM1708 61q0 -29 21 -42t47 -13q47 0 79.5 11.5t66.5 44.5
q-1 -4 -2 -12t0.5 -16.5t5.5 -14.5t13 -6t16 16t13 40.5t11.5 52.5t12 52.5t14.5 40.5t19 16h106q0 18 -12.5 25.5t-30 9.5t-35.5 1t-28 -1v81q-18 0 -24 -8.5t-8 -20.5t-4 -25.5t-12 -23.5q-6 -8 -18.5 -11.5t-26 -6.5t-24.5 -8t-14 -16q0 -3 2.5 -8.5t4.5 -5.5h53
q0 -36 -13.5 -66.5t-36.5 -53t-54 -36t-66 -16.5v7q37 12 57 34t20 59q0 4 -0.5 15.5t-0.5 15.5q-8 11 -19.5 13t-23.5 2q-23 0 -43 -11.5t-34.5 -29.5t-23 -40.5t-8.5 -44.5zM1382 60q0 -7 0.5 -15t3 -15t8 -11.5t15.5 -4.5q18 0 18 14q0 17 -15.5 24.5t-29.5 7.5zM359 41
q0 -9 2 -15t12 -6q2 0 4 0.5t3 0.5q4 4 15.5 14l25 21l25.5 21t17 13l7 3.5t7 2.5l-3.5 -36.5t9.5 -31.5l7 -7h69q7 0 7.5 7.5t0.5 10.5q0 11 -8 14t-17 4.5t-17 5.5t-8 16q0 14 4 27t9 25.5t9 26t4 28.5h-25l-39.5 -34.5t-43.5 -34.5v7q2 4 7 15l10.5 23l10.5 22.5t7 15.5
t10 26.5l17.5 45.5l17.5 45.5t10 26.5q7 16 12.5 26t9.5 18.5t6.5 18t2.5 24.5q-18 0 -31 -15.5t-21 -29.5q-3 -5 -8.5 -16.5t-10.5 -23.5l-9.5 -22.5t-5.5 -13.5q-2 -3 -6 -15l-8.5 -26.5l-8.5 -26.5l-5 -15l-16.5 -34.5l-24.5 -51.5l-24.5 -51.5l-16.5 -34.5q0 -2 -0.5 -7
t-0.5 -7zM579 48v-6q0 -5 1.5 -13t6.5 -8h75l14 7h4h3l7 -7h200q2 0 6.5 2.5t6.5 4.5q4 3 14 12.5l21 20.5l21 21t13 14h10q0 -3 -1.5 -15.5t-1.5 -22.5v-10q0 -2 2.5 -6.5t5.5 -9t6.5 -8t6.5 -3.5h55q5 0 6 5t1 8q0 7 -4.5 11.5t-11 6.5t-13.5 2.5t-13 0.5v14q0 13 3.5 25
t7.5 23.5t7.5 23.5t3.5 24q0 9 -2 15.5t-13 6.5q-1 0 -3.5 -0.5t-3.5 -0.5q-22 -24 -48.5 -50t-54.5 -46v3q0 16 4.5 30.5t10.5 28.5t10.5 28.5t4.5 30.5q-26 0 -38 -18t-18.5 -42t-11.5 -49t-17 -40q-8 -9 -22.5 -7t-22.5 2q0 14 4.5 26.5t9.5 25t9.5 25t4.5 27.5
q-22 0 -33.5 -8t-17.5 -20t-9 -25.5t-7 -25.5t-12 -20t-24 -8q-9 0 -17 1.5t-8 12.5t4.5 22t9.5 20q51 45 88.5 94.5t63.5 112.5q11 -7 20.5 -7.5t20.5 -0.5h10q9 0 17.5 2t8.5 13q0 6 -13 11.5t-30 9t-33.5 5.5t-23.5 2q-14 0 -31.5 -16.5t-36 -41.5t-36 -56l-32.5 -60
t-26 -53t-15 -35q0 -1 -1 -5.5l-2 -9t-2 -8.5t-2 -5q-9 -9 -25.5 -7t-26.5 2q0 14 4.5 26.5t10 25t10 25t4.5 27.5q-21 0 -35.5 -10.5t-23 -27t-12 -36.5t-3.5 -39zM1488 41q0 -11 3 -16t15 -5q7 0 12 1t12 7q4 3 14 12.5l21 20.5l20.5 21l13.5 14h9q0 -2 -0.5 -9l-1 -14.5
l-1 -14.5t-0.5 -10q0 -2 2.5 -6.5t6 -9t7 -8t5.5 -3.5h55q6 0 7 5t1 8q0 7 -4.5 11.5t-11 6.5t-14 2.5t-12.5 0.5q0 2 -0.5 7t-0.5 7q0 13 3.5 25t7.5 23.5t7.5 23.5t3.5 24q0 9 -2 15.5t-12 6.5q-2 0 -4.5 -0.5l-2.5 -0.5l-49.5 -50t-54.5 -46v3q0 16 5 30.5t10.5 28.5
t10.5 28.5t5 30.5q-33 0 -44 -32q-3 -7 -9 -24.5t-12 -37.5t-12 -37.5t-9 -24.5v-14zM167 110q-5 -11 -14 -25.5l-14 -22.5q0 1 -0.5 5t-0.5 5q0 14 7.5 22t21.5 16zM194 76l35 55l4.5 0.5t6.5 0.5q18 0 34.5 -11.5t16.5 -31.5q0 -9 -5.5 -14.5t-13 -8.5t-16.5 -4t-15 -1
q-14 0 -24 2t-23 13zM1833 153v-22q0 -2 -4 -6.5t-9.5 -10t-11.5 -10.5t-10 -8l-5 -2t-11.5 -4l-13.5 -4t-11 -3q-1 0 -4 -0.5t-4 -0.5q0 14 8 27t20.5 22.5t27 15.5t28.5 6zM687 346q0 -23 11 -30t33 -7h10q9 0 17.5 2t8.5 13q0 7 -10.5 11.5t-24.5 7t-27 3t-18 0.5z" />
    <glyph glyph-name="guillemotleft" unicode="&#xab;" horiz-adv-x="630" 
d="M63 394q0 6 0.5 17.5t0.5 12.5t2.5 10.5l5.5 21.5l6 24l5 20q1 2 3 9.5t3 9.5q1 1 3.5 6l3.5 7q0 1 2 5.5t4 10t4 10t2 5.5l32 64l11 20l14 26l12.5 23.5l6.5 12.5q2 4 7.5 12.5l11.5 17.5l11.5 16.5t7.5 10.5t6.5 7.5t10 9.5l10 9t5.5 5q0 1 5 1h7h7q5 0 6 -1
q2 -1 7 -5.5t6 -6.5q0 -1 0.5 -6t0.5 -7q0 -3 -0.5 -7.5t-0.5 -5.5q-1 -2 -6 -8.5l-10 -13.5l-10 -13.5t-6 -8.5l-6.5 -10l-9.5 -15.5l-9.5 -15.5l-6.5 -10t-7 -12l-11 -20l-11.5 -21.5t-8.5 -15.5l-6 -12l-8 -16l-7 -14.5t-4 -8.5q0 -1 -2.5 -7t-5.5 -14l-6 -16l-5 -13
l-3.5 -10.5t-2.5 -8.5q-1 -5 -3 -13.5t-4.5 -17.5t-4 -16.5t-1.5 -9.5v-14v-11q1 -3 6 -10t7 -9t9 -4t10 -3h29h28q1 0 6 3t6 4h7h6q6 -2 13 -8t12 -11q1 -2 -1.5 -9.5t-4.5 -9.5q-1 -2 -6 -6.5t-7 -6.5q-1 -2 -8.5 -6.5t-10.5 -6.5q-2 -1 -6.5 -3.5t-5.5 -2.5h-25h-26
q-1 0 -5.5 1t-9.5 2t-9.5 2t-6.5 1q-2 1 -9.5 3.5t-9.5 3.5q-5 2 -14.5 6.5l-11.5 5.5q-2 2 -9.5 9t-9.5 10q-1 2 -3.5 6.5t-2.5 6.5q0 1 -0.5 14t-0.5 19zM266 450v12q0 2 2 7t4 11l4 11.5t3 8.5l9.5 19l13.5 27l13 26.5l8 16.5q1 1 6 7.5t10 14t10 14t6 8.5q2 2 6.5 9.5
t6.5 9.5q1 1 3.5 5.5l5.5 10t6 10t4 5.5l13 16l19 23.5l19 23t12 13.5q2 2 9 7t10 6l2.5 0.5t3.5 0.5q2 0 4 -0.5l2 -0.5q2 -1 7 -6t6 -7l0.5 -3t0.5 -5t-0.5 -6t-0.5 -5t-2.5 -5.5t-3.5 -6.5l-20 -30.5l-34 -52l-34 -52l-20 -30.5q-1 -1 -4 -6.5l-7 -12.5l-8 -14t-6 -11
q-2 -3 -6.5 -13t-6.5 -12q-2 -6 -7 -18.5t-5 -13.5q-1 -2 1.5 -9.5t4.5 -9.5t11.5 -9.5t13.5 -9.5q3 -2 10.5 -5l15.5 -6t15 -5t10 -3t15 -3t26 -4t26 -3.5t15 -1.5q2 -1 9 -3t10 -4q2 -1 6.5 -3t6.5 -3q0 -2 0.5 -8t0.5 -8q0 -3 -0.5 -9t-0.5 -7q-1 -2 -6 -6.5t-7 -5.5
q-2 -2 -11.5 -4t-13.5 -3h-17h-15q-2 0 -11 2.5t-21 5.5l-24.5 6t-19.5 5q-6 3 -14 5.5t-12 4.5q-8 5 -17 9t-14 7l-7 3.5t-10 5.5t-9 6t-5 4q-2 1 -6.5 5.5l-6.5 6.5q-1 1 -3 6t-3 7q-2 3 -4 10t-3 9v13z" />
    <glyph glyph-name=".0174" unicode="&#xae;" horiz-adv-x="2189" 
d="M579 48v-6q0 -5 1.5 -13t6.5 -8h75l14 7h7l7 -7h200q2 0 6.5 2.5t6.5 4.5q4 3 14 12.5l21 20.5l21 21t13 14h10q0 -3 -1.5 -15.5t-1.5 -22.5v-10q0 -2 2.5 -6.5t5.5 -9t6.5 -8t6.5 -3.5h55q5 0 6 5t1 8q0 7 -4.5 11.5t-11 6.5t-13.5 2.5t-13 0.5v14q0 13 3.5 25t7.5 23.5
t7.5 23.5t3.5 24q0 9 -2 15.5t-13 6.5q-1 0 -3.5 -0.5t-3.5 -0.5q-22 -24 -48.5 -50t-54.5 -46v3q0 16 4.5 30.5t10.5 28.5t10.5 28.5t4.5 30.5q-26 0 -38 -18t-18.5 -42t-11.5 -49t-17 -40q-8 -9 -22.5 -7t-22.5 2q0 14 4.5 26.5t9.5 25t9.5 25t4.5 27.5q-22 0 -33.5 -8
t-17.5 -20t-9 -25.5t-7 -25.5t-12 -20t-24 -8q-9 0 -17 1.5t-8 12.5t4.5 22t9.5 20q51 45 88.5 94.5t63.5 112.5q11 -7 20.5 -7.5t20.5 -0.5h10q9 0 17.5 2t8.5 13q0 6 -13 11.5t-30 9t-33.5 5.5t-23.5 2q-14 0 -31.5 -16.5t-36 -41.5t-36 -56l-32.5 -60t-26 -53t-15 -35
q0 -1 -1 -5.5l-2 -9t-2 -8.5t-2 -5q-9 -9 -25.5 -7t-26.5 2q0 14 4.5 26.5t10 25t10 25t4.5 27.5q-21 0 -35.5 -10.5t-23 -27t-12 -36.5t-3.5 -39zM1708 61q0 -29 21 -42t47 -13q47 0 79.5 11.5t66.5 44.5q-1 -4 -2 -12t0.5 -16.5t5.5 -14.5t13 -6t16 16t13 40.5t11.5 52.5
t12 52.5t14.5 40.5t19 16h106q0 18 -12.5 25.5t-30 9.5t-35.5 1t-28 -1v81q-18 0 -24 -8.5t-8 -20.5t-4 -25.5t-12 -23.5q-6 -8 -18.5 -11.5t-26 -6.5t-24.5 -8t-14 -16q0 -3 2.5 -8.5t4.5 -5.5h53q0 -36 -13.5 -66.5t-36.5 -53t-54 -36t-66 -16.5v7q37 12 57 34t20 59
q0 4 -0.5 15.5t-0.5 15.5q-8 11 -19.5 13t-23.5 2q-23 0 -43 -11.5t-34.5 -29.5t-23 -40.5t-8.5 -44.5zM1172 28q-17 -4 -38.5 -10.5t-40.5 -16t-32 -23.5t-13 -33v-117q0 -28 25 -28q12 0 16 3.5t14 17.5q3 4 9 13l12.5 19l12 18.5l7.5 11.5q4 7 13 24.5l19 36l18.5 33.5
t11.5 18q1 1 4 9.5l6.5 19l6.5 20t4 11.5q4 11 12 23l16.5 24.5t14.5 24.5t6 23q0 6 -1 14.5t-10 8.5q-1 0 -2.5 -0.5l-1.5 -0.5q-18 -14 -31 -28.5l-26 -28t-28.5 -25.5t-38.5 -21v3q0 21 12.5 31.5t27 19t27 19.5t12.5 32q-23 0 -44.5 -9.5t-38.5 -25t-27.5 -36.5
t-10.5 -45q0 -8 1 -12.5t7 -11.5h24q15 0 26 0.5t26 6.5zM119 31v-3q-12 -21 -29.5 -45.5t-34.5 -52t-29 -57.5t-12 -61q8 0 13 1t9 8q2 4 10.5 18.5l17.5 30.5l17 30t10 18q1 2 6.5 10t7.5 10q4 11 14 24.5l20.5 27l20.5 27t14 24.5q12 -3 21 -7t18 -7t18.5 -5.5t22.5 -2.5
q72 0 72 71q0 35 -18 52.5t-52 29.5v36q-8 0 -15.5 -4.5t-15 -10.5t-14 -12t-10.5 -9q-12 -8 -28.5 -16.5t-31.5 -19t-26 -24.5t-11 -33q0 -13 7.5 -24.5t7.5 -23.5zM359 41q0 -9 2 -15t12 -6q2 0 4 0.5t3 0.5q4 4 15.5 14l25 21l25.5 21t17 13l7 3.5t7 2.5l-3.5 -36.5
t9.5 -31.5l7 -7h69q7 0 7.5 7.5t0.5 10.5q0 11 -8 14t-17 4.5t-17 5.5t-8 16q0 14 4 27t9 25.5t9 26t4 28.5h-25l-39.5 -34.5t-43.5 -34.5v7q2 4 7 15l10.5 23l10.5 22.5t7 15.5t10 26.5l17.5 45.5l17.5 45.5t10 26.5q7 16 12.5 26t9.5 18.5t6.5 18t2.5 24.5
q-18 0 -31 -15.5t-21 -29.5q-3 -5 -8.5 -16.5t-10.5 -23.5l-9.5 -22.5t-5.5 -13.5q-2 -3 -6 -15l-8.5 -26.5l-8.5 -26.5l-5 -15l-16.5 -34.5l-24.5 -51.5l-24.5 -51.5l-16.5 -34.5q0 -2 -0.5 -7t-0.5 -7zM1488 41q0 -11 3 -16t15 -5q7 0 12 1t12 7q4 3 14 12.5l21 20.5
l20.5 21l13.5 14h9q0 -2 -0.5 -9l-1 -14.5l-1 -14.5t-0.5 -10q0 -2 2.5 -6.5t6 -9t7 -8t5.5 -3.5h55q6 0 7 5t1 8q0 7 -4.5 11.5t-11 6.5t-14 2.5t-12.5 0.5q0 2 -0.5 7t-0.5 7q0 13 3.5 25t7.5 23.5t7.5 23.5t3.5 24q0 9 -2 15.5t-12 6.5q-2 0 -4.5 -0.5l-2.5 -0.5
l-49.5 -50t-54.5 -46v3q0 16 5 30.5t10.5 28.5t10.5 28.5t5 30.5q-33 0 -44 -32q-3 -7 -9 -24.5t-12 -37.5t-12 -37.5t-9 -24.5v-14zM1158 -9l-5.5 -11l-13 -26l-16 -31l-13.5 -26l-7 -11.5l-8.5 -13.5t-8 -11.5t-4.5 -4.5h-9q0 26 1.5 50.5t10 43t25.5 30t48 11.5zM194 76
l35 55l4.5 0.5t6.5 0.5q18 0 34.5 -11.5t16.5 -31.5q0 -9 -5.5 -14.5t-13 -8.5t-16.5 -4t-15 -1q-14 0 -24 2t-23 13zM1833 153v-22q0 -2 -4 -6.5t-9.5 -10t-11.5 -10.5t-10 -8l-5 -2t-11.5 -4l-13.5 -4t-11 -3q-1 0 -4 -0.5t-4 -0.5q0 14 8 27t20.5 22.5t27 15.5t28.5 6z
M687 346q0 -23 11 -30t33 -7h10q9 0 17.5 2t8.5 13q0 7 -10.5 11.5t-24.5 7t-27 3t-18 0.5zM1382 60q0 -7 0.5 -15t3 -15t8 -11.5t15.5 -4.5q18 0 18 14q0 17 -15.5 24.5t-29.5 7.5zM167 110q-5 -11 -14 -25.5l-14 -22.5q0 1 -0.5 5t-0.5 5q0 14 7.5 22t21.5 16z" />
    <glyph glyph-name=".0176" unicode="&#xb0;" horiz-adv-x="411" 
d="M97 491q0 -6 0.5 -17.5t0.5 -12.5q0 -2 2.5 -6.5t3.5 -6.5l38 -38q1 -1 6 -3.5l11 -5.5l12 -6t9 -4q2 -1 8.5 -3l13.5 -4t13.5 -3.5t8.5 -1.5q1 0 7 -0.5t8 -0.5q3 0 9.5 0.5t7.5 0.5q3 0 15.5 2.5t16.5 3.5q1 0 5.5 2.5t6.5 3.5q7 4 19 11.5t13 7.5l32 32q0 1 2.5 6
l3.5 7q2 3 4 10t2 9l0.5 6t0.5 9t-0.5 9.5l-0.5 6.5q0 2 -2 11.5t-4 14.5l-3.5 10t-2.5 9q-4 5 -10.5 17t-8.5 14t-11.5 9.5t-14.5 9.5q-1 1 -9 3.5t-10 2.5q-1 1 -6 3.5t-6 3.5q-2 1 -13 3t-13 3q-1 1 -4.5 3.5l-7.5 5.5l-8 6t-5 4q-3 2 -13 7l-12 6h-6h-7q-2 0 -14 -5.5
t-17 -7.5l-7 -3.5t-6 -2.5q-2 -2 -7 -6.5t-6 -6.5q-2 -2 -6.5 -10.5t-9.5 -19l-9.5 -20t-5.5 -13.5q-3 -6 -7.5 -20.5t-5.5 -17.5q0 -1 -0.5 -11.5t-0.5 -15.5zM161 495v17q1 3 3 12.5t4 12.5q1 2 3.5 7.5t5.5 11.5t5.5 11.5t4.5 7.5q1 2 5.5 7t6.5 6h9h10q2 -1 12 -3t13 -4
q2 0 6.5 -2.5t6.5 -3.5q3 -2 13 -9.5t12 -9.5t7 -6.5t6 -6.5q2 -2 4 -6.5t2 -5.5q1 -1 1 -12v-17v-14q0 -15 -3.5 -18t-9.5 -9q-3 -2 -9 -5l-12 -6l-11 -5.5t-6 -2.5t-8.5 -0.5t-11.5 -0.5q-5 0 -14 0.5t-10 0.5q-3 0 -10 2.5t-9 3.5q-2 2 -9.5 9t-9.5 10q-2 2 -4.5 6.5
t-2.5 6.5v15z" />
    <glyph glyph-name=".0177" unicode="&#xb1;" 
d="M236 122q1 -2 3.5 -6.5t3.5 -6.5q1 -1 3 -3.5t3 -2.5h25q2 1 9.5 8t9.5 11q2 2 4 9.5t3 9.5v82q0 2 -1 11.5t-2.5 20t-2.5 20t-1 11.5v26q1 2 6 6.5t7 5.5q2 2 12 4t13 3q7 0 26 1t40 2t40 2t27 1q2 1 7 6t6 7v25q-1 1 -3 6t-4 7l-6 6q-3 2 -10 4t-9 2h-161v146
q0 3 -11.5 12t-17.5 13l-2 0.5t-4 0.5t-4 -0.5l-2 -0.5q-2 -1 -9.5 -8.5t-9.5 -10.5q-2 -2 -4 -6.5t-3 -6.5q0 -1 -1 -7.5t-2 -14.5l-2 -16t-1 -12q0 -5 -1 -15.5t-2 -22.5l-2 -23t-1 -15l-7 -6q-6 -1 -22.5 -3t-34.5 -3.5t-34 -3.5t-22 -3q-2 0 -9 -2.5l-10 -3.5
q-2 -2 -7 -4t-6 -3q-2 -1 -6.5 -5.5l-6.5 -6.5q-1 -2 -3.5 -6.5t-2.5 -6.5v-13q0 -1 2.5 -3t3.5 -3q2 -2 7 -4t6 -2h139q1 0 6 -2.5t7 -4.5q1 0 3 -2.5t3 -3.5q1 -2 3.5 -6.5t2.5 -6.5q1 -2 3.5 -14l3.5 -17q0 -3 1 -10.5t2 -16t2 -15.5t1 -9q0 -6 1 -20t2 -30.5t2 -30.5
t1 -20zM52 31v-6q2 -3 6.5 -8t6.5 -5h38q3 0 15 1t26 2t26 2t15 1h32q4 0 18 1.5t31 4t33.5 4.5l24.5 3q1 0 6.5 1t12 2t12 2t7.5 1t9.5 1t16 2.5t16 2.5t9.5 1q3 0 13 2.5t12 3.5l13.5 6.5t11.5 6.5q1 0 3.5 5l3.5 7v7l-19 19q-2 1 -6.5 3.5t-6.5 2.5h-25q-2 0 -7.5 -1
t-12 -2t-12 -2t-6.5 -1q-3 -1 -10.5 -2t-16 -2t-15.5 -2t-9 -1q-16 -2 -47 -4.5t-63 -5.5l-58.5 -5.5t-33.5 -3.5h-38q-7 0 -13 -6q-1 -1 -3.5 -3t-2.5 -3q-2 -3 -6.5 -15z" />
    <glyph glyph-name=".0180" unicode="&#xb4;" 
d="M173 537q0 1 0.5 3t0.5 3l38 38q2 3 9.5 12l17 20.5l18 22l12.5 15.5q1 1 6 9t7 10q2 3 9.5 13t9.5 12q1 1 6 6.5t10 12l9.5 12t5.5 7.5q2 2 7 9.5t6 9.5l13 13l5 0.5t7 0.5q3 0 7.5 -0.5t5.5 -0.5q2 -1 7 -6t6 -7q0 -1 0.5 -8t0.5 -11t-0.5 -11t-0.5 -8q-1 -1 -8 -10.5
t-11 -14.5q-2 -2 -7.5 -8.5l-12 -14l-12 -14t-6.5 -8.5q-1 -1 -5 -5.5t-8 -10t-8 -10t-5 -5.5l-16.5 -17l-24 -25.5t-24.5 -25t-17 -15.5q-2 -2 -12 -6.5t-13 -5.5q-1 -1 -5 -1h-5h-6q-3 0 -3 1q-2 1 -7 5.5t-6 6.5q0 1 -0.5 3t-0.5 4z" />
    <glyph glyph-name="mu" unicode="&#xb5;" horiz-adv-x="488" 
d="M54 -183q0 3 -0.5 11.5t-0.5 10.5q0 5 0.5 13.5t0.5 9.5l5 12l8 19q0 1 1.5 5.5t4 10l5 11t4.5 9.5q3 5 5 12.5t5 14.5l3 12t4.5 16t4 14.5t1.5 8.5q0 1 1 7.5t2 14t2 14t1 8.5q0 1 1.5 7t4 12t4.5 11.5t3 7.5q2 6 5.5 19l7.5 27.5l7.5 26.5t4.5 16q1 3 3.5 15l5.5 26
t6 26t4 15q0 2 3 12.5t3 12.5q0 1 1 6.5t2 12t2 12t1 7.5l3.5 10.5t3.5 8.5q1 2 5.5 6.5l6.5 6.5q2 1 6.5 3.5t6.5 2.5q1 0 4.5 0.5t5.5 0.5t5.5 -0.5l3.5 -0.5q1 0 6 -5t7 -8q2 -2 4 -6.5t2 -5.5v-215q0 -1 2 -8t4 -11l3.5 -7t3.5 -6q1 -2 5.5 -6.5t6.5 -5.5q2 -2 6.5 -4.5
t6.5 -2.5q1 0 9 -0.5t12 -0.5q3 0 9.5 0.5t7.5 0.5l4.5 3l10.5 7l12.5 8.5l10.5 7.5q1 0 3 2.5t3 3.5q2 3 6 8l8 10l7.5 9l3.5 4q2 2 6.5 11.5t6.5 14.5q1 2 3.5 9.5t2.5 9.5q2 6 4.5 20.5t2.5 17.5q0 6 0.5 18.5t0.5 27.5t0.5 31.5t0.5 29.5v27q2 0 8.5 -0.5t8.5 -1.5
q2 0 7 -2.5t5 -3.5q1 -1 6 -13t7 -18l3.5 -10.5t2.5 -8.5q1 -3 2 -8l2 -10t2 -9t1 -5v-40v-36q0 -1 -1.5 -7t-4 -14t-4.5 -16.5t-3 -13.5l-6 -18q-3 -7 -7.5 -19.5t-5.5 -12.5q-2 -3 -9.5 -11l-17 -17.5l-18 -17.5t-12.5 -11q-1 -1 -10.5 -6t-14.5 -7q-2 -1 -9.5 -3t-9.5 -3
l-17 -3.5t-15 -2.5q-1 0 -6 -0.5t-7 -0.5t-7 0.5l-5 0.5q-3 0 -10 1.5t-14.5 4l-13.5 4.5l-6 2q-4 2 -12 7.5l-17 11.5l-17 11.5l-11 7.5l-13 -12q0 -2 -3.5 -14t-8 -29t-7.5 -27q0 -2 -2.5 -12.5t-3.5 -12.5q-2 -5 -4.5 -14t-5.5 -18l-5.5 -16t-3.5 -9l-6.5 -13.5
l-9.5 -20.5l-9.5 -21.5t-6.5 -14.5q-1 -1 -3 -3.5t-3 -2.5h-16h-16q-1 0 -3.5 2.5t-2.5 3.5z" />
    <glyph glyph-name="guillemotright" unicode="&#xbb;" horiz-adv-x="542" 
d="M300 344q0 2 0.5 8t0.5 8l10 20l15.5 30.5l15.5 30.5l10 20q3 5 11.5 23.5l18 41l19 43.5t14.5 31q3 6 8 18t5 14l0.5 5t0.5 7t-0.5 6.5t-0.5 6.5q-3 2 -13 7t-18 8q-2 2 -4 2.5t-3 1.5q-2 1 -12.5 3.5t-12.5 2.5l-9 3t-12 4.5t-11 4t-6 1.5l-13 6.5l-13 6.5q-1 0 -9 2.5
t-9 3.5l-12.5 6.5l-17.5 9.5l-16.5 9.5t-10.5 6.5q-2 1 -7 5.5t-6 6.5q0 1 -0.5 3t-0.5 3q0 2 0.5 4.5l0.5 2.5l6.5 13.5t6.5 11.5q1 1 5.5 3.5t6.5 3.5h7h6q5 -3 17.5 -9.5l26.5 -14t26.5 -13.5t17.5 -8l13 -4.5l22 -7.5l23.5 -7.5t17.5 -5.5q3 0 16 -3t16 -3l9 -3
t12.5 -4.5t11.5 -4l5 -1.5q2 -1 11.5 -10.5t13.5 -14.5q1 -2 3.5 -6.5t3.5 -6.5v-3v-3l-3.5 -14t-3.5 -12q0 -1 -2.5 -6t-3.5 -6q-2 -4 -6.5 -16t-6.5 -16q0 -2 -2.5 -9.5t-3.5 -9.5l-56.5 -113t-51.5 -115q0 -2 -2.5 -9.5t-3.5 -9.5q-3 -5 -13 -14t-12 -11h-13h-13
q-3 2 -10 9t-9 10q0 1 -0.5 7t-0.5 9zM118 379l3.5 14.5t11.5 14.5q6 6 12.5 13.5l12.5 14.5l10.5 12t6.5 7q1 1 4 5l7 9t8 9.5t6 7.5q4 5 11 14.5t8 11.5q1 1 4.5 6.5t7.5 12.5l8 14t6 11l3.5 7l2.5 5v13v13l-6 6q-2 2 -13 9.5t-13 9.5q-1 1 -6 5l-10 8l-9.5 7.5t-5.5 4.5
q-2 2 -13 7t-13 6q-1 1 -4.5 4l-7.5 6.5t-8 6t-5 2.5q-1 1 -6 3t-10 3.5t-10 3.5t-6 3q-2 1 -9 5.5l-10 6.5q-1 2 -3.5 4t-2.5 3l-0.5 5.5t-0.5 7.5q0 3 0.5 7.5l0.5 4.5q1 2 8 9t11 10h3h3q3 -1 10 -3t9 -3q1 -1 6.5 -4.5t13 -7.5l14.5 -8t11 -6q2 -1 9.5 -5.5t15.5 -10
t15.5 -10t9.5 -5.5q2 -2 8.5 -5.5t13.5 -8t13.5 -8t9.5 -4.5q1 -1 6.5 -3.5l12 -5.5t12 -6t6.5 -4q3 -2 8 -6.5t10 -9.5t9 -9.5t5 -5.5q0 -1 0.5 -6t0.5 -8t-0.5 -10t-0.5 -8q0 -2 -2.5 -9l-3.5 -10l-6 -11.5l-8 -15l-7.5 -14.5l-4.5 -9q0 -1 -3 -5l-6 -8l-6 -8t-3 -5
q-2 -2 -7 -9.5t-6 -9.5q-2 -2 -7.5 -9l-12 -15.5l-12 -16t-6.5 -9.5t-4.5 -8t-8 -12.5l-8 -11.5t-4.5 -6q-3 -3 -9 -9.5l-12 -12.5q-2 -4 -9 -6t-15 -4h-6h-6q-2 0 -6.5 2.5t-6.5 3.5l-13 13q-6 6 -6 13z" />
    <glyph glyph-name=".0191" unicode="&#xbf;" horiz-adv-x="438" 
d="M315 688q0 2 -0.5 5l-0.5 3q-2 4 -9 14t-10 12q-1 0 -8 2.5t-11 3.5h-3h-3q-2 -2 -9.5 -9t-9.5 -10q-6 -6 -6 -13l-0.5 -5.5t-0.5 -7.5t0.5 -7l0.5 -5q5 -5 12 -11t13 -8h3h3q5 1 14.5 3.5t11.5 3.5l2.5 2t3.5 4q2 2 4 6.5t2 5.5t0.5 5t0.5 6zM327 497v4l-3.5 10.5
t-2.5 8.5q-1 1 -6 3t-7 3h-6h-7q-1 -1 -5.5 -3t-6.5 -3l-7 -7q-3 -6 -12 -22l-19.5 -34l-19.5 -34.5t-12 -22.5l-19 -38q-1 -3 -4 -10.5l-6 -15.5l-5.5 -15l-3.5 -10t-3 -10t-4 -15t-3.5 -15t-1.5 -10q-1 -3 -2.5 -10.5t-2.5 -15.5t-1.5 -15t-0.5 -10v-42v-40
q0 -2 2.5 -14.5t4.5 -17.5q4 -17 12 -31q2 -4 7 -11t6 -8q2 -3 6.5 -8t10 -10t9.5 -9l5 -5q3 -2 13 -6.5t13 -5.5q3 0 15 -1t20 -1h9h11q10 0 20.5 1t12.5 1q1 0 7.5 3t15 6.5t16.5 8t12 7.5q1 0 3 2.5t3 3.5l7 10t6 9t3.5 9.5t2.5 9.5q0 1 0.5 12t0.5 16q0 6 -0.5 17
t-0.5 12t-2.5 8.5l-3.5 10.5l-6.5 13.5t-6.5 11.5t-6.5 7t-6.5 6l-3.5 0.5t-5.5 0.5t-5.5 -0.5t-4.5 -0.5q-2 -2 -7 -6.5t-5 -6.5v-88q0 -2 -5 -6.5t-8 -6.5l-13.5 -7l-11.5 -6q-1 0 -8.5 -0.5t-11.5 -0.5t-10.5 0.5t-7.5 0.5q-1 1 -10.5 8t-14.5 11l-7 7l-7 13.5t-5 11.5
q0 1 -0.5 8t-1.5 16t-2.5 18l-2.5 15v9v10q0 4 1 13.5t2.5 19.5t2.5 18.5t1 11.5q0 2 2.5 11.5l3.5 13.5q2 3 5.5 14l7.5 23.5l7.5 23.5t4.5 15q2 3 6.5 15l6.5 17q1 2 3 6.5t3 5.5q2 2 7 9.5t6 9.5l6.5 13l9.5 19l9.5 19t6.5 12q1 2 3 9.5t3 9.5v3z" />
    <glyph glyph-name=".0192" unicode="&#xc0;" horiz-adv-x="482" 
d="M10 28v7l6 30q1 2 4 10.5l6.5 18.5t6 19t2.5 11q1 3 3.5 14l5.5 24t6 24t4 13t3.5 12t3.5 12v7v14v12v8q0 2 5.5 9t6.5 9q2 3 7 12t6 11t3.5 11.5t2.5 11.5q12 42 26 80.5t30 78.5q2 4 6.5 15.5t6.5 14.5q2 5 6.5 13.5t5.5 9.5q2 1 6.5 3t6.5 2q1 0 7.5 0.5t9.5 0.5
t8.5 -0.5t6.5 -0.5q2 0 9.5 -4.5t9.5 -6.5q1 -1 6 -7.5t7 -9.5q1 -1 3 -5.5t4 -6.5q4 -10 14.5 -30.5l17.5 -34.5q4 -11 6 -12q0 -1 1.5 -4.5l3.5 -8l4 -9t3 -7.5t6 -17t11.5 -30l12.5 -30t8 -17q3 -5 9 -18.5l13 -28.5l13 -28.5t8 -18.5q3 -4 13.5 -23l22.5 -41l22 -41
l12 -23q0 -1 1.5 -5.5t4 -10.5t4.5 -11.5t3 -8.5v-4v-2q-2 -3 -6.5 -12t-6.5 -11q-1 -2 -6 -6t-7 -6h-3h-3q-2 1 -6.5 3t-6.5 3q-3 2 -12.5 11l-12.5 12q-1 1 -3 5.5t-3 6.5q-1 1 -2.5 6t-4 11t-4 11.5t-2.5 7.5l-2.5 4t-3.5 6q-1 1 -4 5.5t-6 9.5t-5.5 10t-2.5 6
q-2 2 -7.5 13.5l-12 24l-12 24l-6.5 13.5q-2 5 -9.5 16.5t-9.5 13.5q-6 6 -13 6h-134l-5 -2t-7 -4q-2 -1 -4 -3l-3 -3q-2 -4 -6 -15.5t-5 -13.5q0 -2 -1 -7t-2 -11t-2 -11t-1 -6q-2 -5 -4 -16t-3 -14q0 -2 -2 -8.5t-4 -14.5t-4 -14.5t-2 -8.5t-1 -9t-2.5 -15t-2.5 -15t-1 -9
t-2.5 -5.5t-3.5 -5.5l-25 -24h-17h-21q-1 0 -3.5 2.5l-3.5 3.5l-6 18v4zM161 307v-2q2 -2 9.5 -3.5t9.5 -1.5q1 -1 14 -1h21h17q15 0 18 1q2 -1 7 1t6 4l0.5 1.5t0.5 3.5q0 1 -0.5 3.5t-0.5 3.5q-1 4 -5 13.5t-8 20.5l-8 21t-5 15l-6 11.5l-7 13.5q-2 2 -7 9t-6 7
q-2 1 -6 -1.5t-6 -4.5t-6.5 -12.5l-6.5 -15.5q-1 -2 -4 -10t-6 -17.5t-5.5 -19l-3.5 -13.5q-1 -3 -3.5 -12.5t-2.5 -11.5v-3zM108 729v13q1 1 3 3.5t4 2.5l3.5 0.5t5.5 0.5t5.5 -0.5t4.5 -0.5q5 0 9 -3.5t9 -8.5l26 -26q2 -2 8.5 -7l15 -11l16 -11.5l11.5 -8.5q3 0 14 -8.5
t17 -10.5q6 -3 13.5 -5.5t18.5 -6.5q2 -1 12.5 -3.5t12.5 -3.5t7 -5.5t6 -6.5q0 -1 0.5 -6.5t0.5 -7.5t-0.5 -6.5t-0.5 -5.5q-1 -1 -8 -3t-11 -3h-13q-32 0 -57 13q-1 0 -6 2.5t-6 3.5q-2 0 -6.5 1.5t-10 4l-10 4.5t-5.5 3q-2 1 -9.5 9t-9.5 10q-2 1 -9.5 6t-9.5 6
q-3 2 -13 12t-12 14q-2 2 -9.5 11.5t-9.5 13.5q-2 2 -4.5 6.5t-2.5 6.5v12z" />
    <glyph glyph-name=".0193" unicode="&#xc1;" horiz-adv-x="482" 
d="M10 30v6q1 4 3 15.5t3 15.5q1 2 4 11l6.5 19t6 19t2.5 11q1 3 3.5 14.5l5.5 25t6 25t4 14.5q1 2 3.5 12t3.5 12v8v13v13v9q0 2 5.5 9t6.5 9q2 3 7 12.5l6 11.5t3 12t2 12q12 43 26.5 82.5l30.5 81.5q2 4 6.5 16t6.5 15q2 5 6.5 14t5.5 10q2 1 6.5 3t6.5 2q1 0 7.5 0.5
t9.5 0.5t8.5 -0.5t6.5 -0.5q2 0 9.5 -4.5t9.5 -6.5q1 -1 5 -8t6 -10q1 -1 3 -6t4 -7q2 -5 6 -13.5l8.5 -18t9.5 -19t8 -16.5q4 -9 6 -11q1 -2 5.5 -14l6.5 -17q1 -4 6 -18t11.5 -30.5l12.5 -31t8 -17.5q3 -5 9.5 -19l13.5 -29.5l13 -29.5t8 -19q3 -4 13 -23.5l22 -42
l22 -42.5t12 -25q0 -1 1.5 -5.5t4 -10.5t4.5 -11.5t3 -8.5v-4v-3q-2 -3 -6.5 -12.5t-6.5 -11.5q-1 -2 -6 -6t-7 -6h-3h-3q-2 1 -6.5 3t-6.5 3t-5.5 4.5t-7 7.5t-7 7.5l-4.5 4.5t-3 6t-3 7q-1 1 -2.5 6t-4 11t-4 11.5t-2.5 7.5q0 1 -2.5 5.5t-3.5 6.5q-1 1 -4 5.5l-6.5 9.5
t-6 9.5t-2.5 5.5q-2 3 -7.5 14.5l-12 25l-12 25t-6.5 14.5q-2 5 -9.5 17t-9.5 14t-6.5 3.5t-6.5 1.5h-132l-5 -1.5t-7 -3.5q-2 -1 -4 -3.5t-3 -3.5q-2 -4 -6.5 -15.5t-5.5 -14.5q0 -2 -1 -7t-2 -11l-2 -11.5t-1 -6.5q-2 -5 -4 -16.5t-3 -14.5q0 -2 -2 -9t-4 -15t-4 -15
t-2 -9t-1 -9t-2.5 -15.5t-2.5 -15.5t-1 -9t-2 -6l-3 -6l-25 -24h-17h-21q-1 0 -3.5 2.5l-3.5 3.5l-6 18v6zM161 317v-2q2 -2 9.5 -4t9.5 -2h14h21h17h16q2 0 7 2t6 4l0.5 2t0.5 4q0 1 -0.5 3.5t-0.5 3.5q-1 4 -4.5 14l-7.5 21l-7.5 21.5t-4.5 15.5l-6 11.5t-7 12.5
q-2 4 -7 11t-6 8q-2 1 -6 -2t-6 -5t-6.5 -13.5l-6.5 -16.5q-1 -2 -4 -10t-6 -18t-5.5 -19.5l-3.5 -13.5q-1 -3 -3.5 -12.5t-2.5 -11.5v-4zM303 759l11 -6q1 -1 2.5 -4t0.5 -5l-1 -3.5t-2 -5.5q-2 -2 -3.5 -5t-2.5 -3q-2 -5 -6.5 -7l-11.5 -5l-35 -11q-3 -1 -10.5 -5
l-16.5 -9l-17.5 -9.5l-12.5 -6.5q-1 -2 -13 -8t-17 -11q-9 -6 -25 -24q-2 -1 -9 -9t-9 -9q-1 -2 -7.5 -5t-8.5 -2q-1 0 -6 2t-7 3q-2 2 -5.5 4t-4.5 2q-1 1 0 8.5t3 11.5l5 12q15 29 37 45q1 1 5.5 4.5t5.5 3.5q0 1 3.5 5t8 8t8.5 7t6 4q1 2 11.5 4.5t13.5 3.5q2 2 9.5 6
t9.5 6q3 2 16 6.5t18 4.5q3 2 15 4t16 2q4 2 8 2q5 0 7 -1z" />
    <glyph glyph-name=".0194" unicode="&#xc2;" horiz-adv-x="482" 
d="M10 29v7q1 3 3 14.5t3 15.5q1 2 4 10.5l6.5 19t6 19t2.5 10.5q1 3 3.5 14.5l5.5 24.5t6 24t4 14q1 2 3.5 12t3.5 12v7v14v13v8q0 2 5.5 9t6.5 9q2 3 7 12.5l6 11.5t3.5 11.5t2.5 11.5q12 42 26.5 81.5l30.5 79.5q1 2 3 6.5t3.5 9.5t3.5 9t3 5q2 5 6.5 14t5.5 10
q2 1 6.5 3.5t6.5 2.5h17h15q2 0 9.5 -5t9.5 -7q1 -1 5.5 -8l6.5 -10q1 -1 3 -5.5t4 -6.5q4 -10 14.5 -31l17.5 -35q5 -10 6 -11q1 -2 5.5 -13.5l6.5 -16.5q1 -4 6 -18t11.5 -30l12.5 -30t8 -17q3 -5 9.5 -19l13.5 -29l13 -28.5t8 -18.5q3 -5 13.5 -24l22.5 -41.5l22 -42
l12 -23.5q0 -1 1.5 -5.5t4 -10.5t4.5 -11.5t3 -8.5v-4v-3q-2 -2 -6.5 -11.5t-6.5 -11.5q-1 -2 -6 -6t-7 -6h-3h-3q-2 1 -6.5 3t-6.5 3q-3 2 -12.5 11.5l-12.5 12.5q-1 1 -3 5.5t-3 6.5q-1 1 -2.5 6t-4 11t-4 11.5t-2.5 7.5q0 1 -2.5 5t-3.5 6q-1 1 -4 5t-6.5 9.5t-6 10
t-2.5 5.5q-2 3 -7.5 14l-12 24.5l-12 24.5t-6.5 14q-2 5 -9.5 17t-9.5 14t-6.5 3.5t-6.5 1.5h-133l-5 -1.5t-7 -3.5q-2 -1 -4 -3.5t-3 -3.5q-2 -4 -6.5 -15t-5.5 -14q0 -2 -1 -7t-2 -11l-2 -11.5t-1 -6.5q-2 -5 -4 -16t-3 -14q0 -2 -2 -9t-4 -15t-4 -14.5t-2 -8.5t-1 -9
t-2.5 -15.5t-2.5 -15.5t-1 -8q0 -2 -2.5 -6t-3.5 -6l-25 -24h-17h-21q-1 0 -3.5 2.5l-3.5 3.5q-1 2 -3 9t-3 9v5zM162 312v-2q2 -2 9.5 -4t9.5 -2q1 -1 14 -1h21h17q14 0 17 1q2 -1 7 1.5t6 4.5l0.5 1.5t0.5 3.5q0 1 -0.5 3.5t-0.5 3.5q-1 4 -4.5 13.5l-8 21t-8 21.5
t-4.5 15q-1 2 -6 11t-7 13t-7 10.5t-6 7.5q-2 1 -6 -2t-6 -5t-6.5 -13l-6.5 -16q-1 -2 -4 -10t-6 -17.5t-5.5 -19l-3.5 -13.5q-1 -3 -3.5 -12.5t-2.5 -11.5v-3zM34 605q0 1 0.5 2l0.5 1q0 3 2.5 8l3.5 7l18 22q2 1 8 6.5l13 11.5l13 11t9 7q1 1 6 4t10.5 7l10 7t5.5 5
q2 1 9 7.5t9 7.5q1 0 5.5 2t10 5t10 5t5.5 2q2 1 6.5 4t5.5 4q3 2 10.5 4.5t8.5 2.5t10 0.5t14 0.5t15 -0.5t11 -0.5q5 0 13 -4.5t14 -8.5q8 -6 16.5 -11t10.5 -5q2 -2 7 -7.5l11 -12.5l11.5 -14l8.5 -11q2 -2 3.5 -7t2.5 -8v-7v-7q-1 -2 -2.5 -7t-3.5 -8q-2 0 -7.5 -0.5
t-7.5 -0.5q-4 0 -10 0.5l-6 0.5q-2 0 -6 3t-6 4q-1 1 -3 7.5t-3 7.5q-2 1 -11 7t-14 8q-3 2 -10 4.5t-8 2.5h-16h-16q-1 0 -7.5 -2.5t-10.5 -4.5q-3 -1 -7.5 -3.5t-9.5 -5l-9 -4.5t-5 -2l-10 -6.5t-15 -9l-15 -8.5t-9 -5l-7 -8q-2 -2 -14 -11t-16 -11l-14.5 -8.5t-10.5 -5.5
q-1 -1 -6 -1h-7h-6q-5 0 -6 1q-2 0 -6 7t-6 15l-0.5 1t-0.5 3z" />
    <glyph glyph-name=".0195" unicode="&#xc3;" horiz-adv-x="482" 
d="M10 31v7q1 4 3 16t3 16q1 2 4 11l6.5 20t6 20.5t2.5 11.5q1 3 3.5 15l5.5 26t6 26t4 15q1 2 3.5 12.5t3.5 12.5v8v14v14v9q0 2 5.5 9.5t6.5 9.5q2 3 7 13l6 12t3.5 12.5t2.5 12.5q12 45 26.5 86.5l30.5 84.5q2 4 6.5 16.5t6.5 15.5q2 5 6.5 14.5t5.5 10.5q2 1 6.5 3.5
t6.5 2.5q1 0 7.5 0.5t9.5 0.5t8.5 -0.5t6.5 -0.5q2 0 9.5 -5t9.5 -7q1 -1 5.5 -8.5t6.5 -10.5q1 -1 3 -6t4 -7q4 -11 14.5 -33l17.5 -37q4 -11 6 -12q1 -2 5.5 -14.5t6.5 -17.5q1 -4 6 -19t11.5 -32l12.5 -32t8 -18q3 -6 9.5 -20.5l13.5 -30.5l13 -30.5l8 -19.5
q3 -5 13.5 -25l22.5 -44l22 -44.5t12 -25.5q0 -1 1.5 -6t4 -11t4.5 -12l3 -9v-4v-3q-2 -3 -6.5 -13t-6.5 -12q-1 -2 -6 -6.5t-7 -6.5h-3h-3q-2 1 -6.5 3.5t-6.5 3.5q-3 2 -12.5 12l-12.5 13q-1 1 -3 6t-3 7q-1 1 -2.5 6.5t-4 12t-4 12t-2.5 7.5q0 1 -2.5 5.5t-3.5 6.5
q-1 1 -4 5.5l-6.5 10t-6 10.5t-2.5 6q-2 3 -7.5 15l-12 26l-12 26t-6.5 15q-2 5 -9.5 17.5t-9.5 14.5q-6 6 -13 6h-133l-5 -2t-7 -4q-2 -1 -4 -3.5t-3 -3.5q-2 -4 -6.5 -16t-5.5 -15q0 -2 -1 -7.5t-2 -12t-2 -12t-1 -6.5q-2 -5 -4 -17t-3 -15q0 -2 -2 -9.5l-4 -15.5
l-4 -15.5t-2 -9.5t-1 -9.5t-2.5 -16t-2.5 -16t-1 -9.5t-2.5 -6.5t-3.5 -6.5l-25 -25h-17h-21q-1 0 -3.5 2.5l-3.5 3.5q-1 2 -3 9.5t-3 9.5v6zM162 331v-2q2 -2 9.5 -4t9.5 -2q1 -1 14 -1h21h17q14 0 17 1q2 -1 7 1.5t6 4.5l0.5 2t0.5 4q0 1 -0.5 3.5t-0.5 3.5
q-1 4 -4.5 14.5t-8 22.5t-8 22.5t-4.5 15.5l-6 12l-7 14t-7 11t-6 8q-2 1 -6 -2t-6 -5q-1 -1 -2.5 -5t-4 -9t-4 -9.5l-2.5 -7.5q-1 -2 -4 -10.5t-6 -18.5t-5.5 -20t-3.5 -15q-1 -3 -3.5 -13t-2.5 -12v-4z" />
    <glyph glyph-name=".0196" unicode="&#xc4;" horiz-adv-x="482" 
d="M10 31v7q1 4 3 16t3 16q1 2 4 11l6.5 20t6 20.5t2.5 11.5q1 3 3.5 15l5.5 26t6 26t4 15q1 2 3.5 12.5t3.5 12.5v8v14v14v9q0 2 5.5 9.5t6.5 9.5q2 3 7 13l6 12t3.5 12.5t2.5 12.5q12 45 26.5 86.5l30.5 84.5q2 4 6.5 16.5t6.5 15.5q2 5 6.5 14.5t5.5 10.5q2 1 6.5 3.5
t6.5 2.5q1 0 7.5 0.5t9.5 0.5t8.5 -0.5t6.5 -0.5q2 0 9.5 -5t9.5 -7q1 -1 5.5 -8.5t6.5 -10.5q1 -1 3 -6t4 -7q4 -11 14.5 -33l17.5 -37q4 -11 6 -12q1 -2 5.5 -14.5t6.5 -17.5q1 -4 6 -19t11.5 -32l12.5 -32t8 -18q3 -6 9.5 -20.5l13.5 -30.5l13 -30.5l8 -19.5
q3 -5 13.5 -25l22.5 -44l22 -44.5t12 -25.5q0 -1 1.5 -6t4 -11t4.5 -12l3 -9v-4v-3q-2 -3 -6.5 -13t-6.5 -12q-1 -2 -6 -6.5t-7 -6.5h-3h-3q-2 1 -6.5 3.5t-6.5 3.5q-3 2 -12.5 12l-12.5 13q-1 1 -3 6t-3 7q-1 1 -2.5 6.5t-4 12t-4 12t-2.5 7.5q0 1 -2.5 5.5t-3.5 6.5
q-1 1 -4 5.5l-6.5 10t-6 10.5t-2.5 6q-2 3 -7.5 15l-12 26l-12 26t-6.5 15q-2 5 -9.5 17.5t-9.5 14.5q-6 6 -13 6h-133l-5 -2t-7 -4q-2 -1 -4 -3.5t-3 -3.5q-2 -4 -6.5 -16t-5.5 -15q0 -2 -1 -7.5t-2 -12t-2 -12t-1 -6.5q-2 -5 -4 -17t-3 -15q0 -2 -2 -9.5l-4 -15.5
l-4 -15.5t-2 -9.5t-1 -9.5t-2.5 -16t-2.5 -16t-1 -9.5t-2.5 -6.5t-3.5 -6.5l-25 -25h-17h-21q-1 0 -3.5 2.5l-3.5 3.5q-1 2 -3 9.5t-3 9.5v6zM162 331v-2q2 -2 9.5 -4t9.5 -2q1 -1 14 -1h21h17q14 0 17 1q2 -1 7 1.5t6 4.5l0.5 2t0.5 4q0 1 -0.5 3.5t-0.5 3.5
q-1 4 -4.5 14.5t-8 22.5t-8 22.5t-4.5 15.5l-6 12l-7 14t-7 11t-6 8q-2 1 -6 -2t-6 -5q-1 -1 -2.5 -5t-4 -9t-4 -9.5l-2.5 -7.5q-1 -2 -4 -10.5t-6 -18.5t-5.5 -20t-3.5 -15q-1 -3 -3.5 -13t-2.5 -12v-4zM274 675v-8q0 -6 1 -7q0 -7 7 -8q3 -2 8.5 -4.5t6.5 -3.5h12h11
q3 1 8.5 3.5t7.5 4.5q1 1 3.5 6.5t3.5 8.5q0 1 1 2l1 1q0 1 -1 3l-1 2q-1 3 -3.5 11.5t-3.5 11.5q-2 1 -4 4.5t-4 3.5q-1 0 -9 0.5t-11 0.5q-4 0 -10.5 -0.5t-7.5 -0.5q-3 -2 -8.5 -8t-6.5 -8q-1 0 -1 -6v-9zM37 673v-9q0 -7 2 -9q0 -6 10 -7q3 -3 10.5 -5.5t8.5 -3.5h15h16
l11 3.5t9 5.5q2 1 5.5 6.5t4.5 9.5q0 1 1 2.5l1 1.5q0 1 -1 3l-1 2q-1 4 -4.5 12.5t-5.5 11.5l-4.5 4.5t-5.5 3.5l-11 1t-16 1t-13.5 -1t-10.5 -1q-4 -2 -10.5 -8t-8.5 -9q-2 0 -2 -6v-9z" />
    <glyph glyph-name=".0197" unicode="&#xc5;" horiz-adv-x="482" 
d="M113 621q0 -5 0.5 -12t0.5 -8q0 -2 1.5 -4.5t1.5 -3.5l25 -25q1 -1 8 -4.5t12 -5.5v-1q-2 -3 -6.5 -15.5t-6.5 -16.5l-30.5 -84.5t-26.5 -86.5q0 -2 -2.5 -12.5t-3.5 -12.5l-6 -12t-7 -13q-1 -2 -6.5 -9.5t-5.5 -9.5v-45q-1 -2 -3.5 -12.5t-3.5 -12.5q-1 -3 -4 -15
t-6 -26l-5.5 -26t-3.5 -15q0 -2 -2.5 -11.5t-6 -20.5l-6.5 -20t-4 -11q-1 -4 -3 -16t-3 -16v-13q1 -2 3 -9.5t3 -9.5l3.5 -3.5t3.5 -2.5h38l25 25q1 2 3.5 6.5t2.5 6.5t1 9.5t2.5 16t2.5 16t1 9.5t2 9.5l4 15.5l4 15.5t2 9.5q1 3 3 15t4 17q0 1 1 6.5t2 12t2 12t1 7.5
q1 3 5.5 15t6.5 16q1 1 3 3.5t4 3.5q2 2 7 4l5 2h133q7 0 13 -6q2 -2 9.5 -14.5t9.5 -17.5q1 -3 6.5 -15l12 -26l12 -26t7.5 -15q0 -1 2.5 -6t6 -10.5l6.5 -10t4 -5.5q1 -2 3.5 -6.5t2.5 -5.5q1 -2 2.5 -7.5t4 -12t4 -12t2.5 -6.5q1 -2 3 -7t3 -6l12.5 -13t12.5 -12
q2 -1 6.5 -3.5t6.5 -3.5h6q2 2 7 6.5t6 6.5q2 2 6.5 12t6.5 13v7l-3 9t-4.5 12t-4 11t-1.5 6q-2 5 -12 25.5l-22 44.5l-22.5 44t-13.5 25l-8 19.5l-13 30.5l-13.5 30.5t-9.5 20.5q-2 3 -8 18l-12.5 32t-11.5 32t-6 19q-2 5 -6.5 17.5t-5.5 14.5q-2 1 -6 12l-17.5 37
t-14.5 33q-2 2 -4 7t-3 6h-1l11.5 7l6.5 4l22 21q0 1 1.5 3.5t2.5 4.5t2 6.5t1 5.5l0.5 4t0.5 6t-0.5 6.5l-0.5 4.5q0 2 -1 7t-2 9q-1 2 -2.5 6.5t-1.5 6.5q-3 3 -7 10.5t-6 9.5q-2 1 -8 5.5t-9 6.5q-1 1 -6 2.5t-7 1.5q-1 0 -4 1.5t-3 2.5l-10 5t-10 4q-1 1 -6.5 3.5
t-7.5 4.5l-8 4l-8 4h-9q-2 0 -9.5 -3.5t-11.5 -4.5q-1 -1 -4 -2.5t-4 -1.5q-2 -2 -5 -4.5t-4 -4.5q-1 -1 -4 -6.5l-6.5 -12.5t-6 -13t-3.5 -9q-2 -4 -5 -13t-3 -11q0 -1 -0.5 -7.5t-0.5 -9.5zM162 329v6q0 2 2.5 12t3.5 13q1 5 3.5 15t5.5 20t6 18.5t4 10.5l2.5 7.5t4 9.5
t4 9t2.5 5q2 2 6 5t6 2q1 -1 6 -8t7 -11l7 -14l6 -12q1 -5 4.5 -15.5t8 -22.5t8 -22.5t4.5 -14.5q0 -1 0.5 -3.5t0.5 -3.5q0 -2 -0.5 -4l-0.5 -2q-1 -2 -6 -4.5t-7 -1.5q-3 -1 -17 -1h-38q-13 0 -14 1q-2 0 -9.5 2t-9.5 4zM172 618l-5 20q2 2 5 9.5t5 9.5q-1 7 8.5 9
t15.5 -4q5 -4 13.5 -5t13.5 -7q6 -6 8.5 -7t3.5 -2.5t1.5 -4.5t0.5 -13q3 -17 -5 -20t-21 -9q-5 -2 -16 1t-15 3q-2 0 -2 6t-11 14z" />
    <glyph glyph-name=".0198" unicode="&#xc6;" horiz-adv-x="543" 
d="M10 38v-13q1 -2 3 -9.5t3 -9.5l3.5 -3.5t3.5 -2.5h38l25 25q1 2 3.5 6.5t2.5 6.5t1 9.5t2.5 16t2.5 16t1 9.5t2 9.5l4 15.5l4 15.5t2 9.5q1 3 3 15t4 17q0 1 1 6.5t2 12t2 12t1 7.5q1 3 5.5 15t6.5 16q1 1 3 3.5t4 3.5q2 2 7 4l5 2l37 -3q2 0 5 -3.5t5 -6.5
q0 -3 1.5 -12.5t1.5 -17.5v-7q0 -8 -0.5 -23.5t-0.5 -32.5q0 -16 0.5 -30.5t1.5 -20.5q-7 -27 -4 -45.5t12 -41.5q2 -2 4.5 -5.5t4.5 -5.5h3q6 -1 12 0.5t8 2.5q3 2 10.5 8.5t12.5 8.5v3l3 4q3 8 7 8t5 -1q2 -2 9.5 -10t9.5 -9q2 -2 12.5 -4t12.5 -3q1 0 3.5 -2.5t2.5 -3.5
l25 2q17 0 38.5 9t46.5 13q8 8 22 19t22 19l10 10q2 2 7 9.5t6 9.5q-1 11 -3 14.5t-4 4.5h-31q-1 -1 -6 -3t-7 -4q-2 -1 -9.5 -6t-9.5 -6l-13.5 -7l-11.5 -6q-4 -2 -16 -4t-16 -2q-1 -1 -4 -1q-2 0 -6 -2q-11 2 -21 1t-19 6q-1 1 -8.5 5.5t-10.5 7.5q-1 1 -3.5 3t-2.5 3
q-1 1 -5 11.5t-6 17.5q-1 6 -2 9t-3 15q-2 9 -2.5 14t-1.5 9t-1.5 8.5t-1.5 12.5t-1.5 14.5t-0.5 8.5q-1 1 -1 15v32q0 9 1 10l6 6q2 0 11.5 1t20.5 1h33q1 0 4 -1.5t19 -4.5q3 0 9.5 -1l13.5 -2t13 -2t8 -1q1 0 10 -0.5t13 -0.5q14 0 19 0.5t15 6.5q4 3 5.5 6t1.5 15
q0 4 -1 4q0 2 -6 7.5t-13 5.5q-2 1 -11.5 3t-20 3.5t-20 3.5t-11.5 3q-17 6 -28 8.5t-27 2.5h-23q-13 0 -25 -0.5t-16 -0.5l-7 6q2 20 3.5 38.5t3.5 23.5q0 5 1 18t1 15q-1 4 0 14q0 12 -0.5 28.5t-0.5 30.5q4 4 5 4l145 2q3 0 8 7.5t5 19.5q0 4 -1 4q0 2 -2.5 6.5t-3.5 6.5
q-2 1 -6.5 3.5t-6.5 2.5q-6 1 -17 3t-23 3.5l-23 3t-18 1.5h-72q-2 3 -3 5t-2 3q-1 0 -6 2t-7 4q-1 1 -13 1q-7 0 -17 -0.5t-19 -1.5t-15 -1h-6q-2 0 -6.5 -2.5t-6.5 -3.5q-1 -1 -5.5 -10.5t-6.5 -14.5q-2 -3 -6.5 -15.5t-6.5 -16.5l-30.5 -84.5t-26.5 -86.5
q0 -2 -2.5 -12.5t-3.5 -12.5l-6 -12t-7 -13q-1 -2 -6.5 -9.5t-5.5 -9.5v-45q-1 -2 -3.5 -12.5t-3.5 -12.5q-1 -3 -4 -15t-6 -26l-5.5 -26t-3.5 -15q0 -2 -2.5 -11.5t-6 -20.5l-6.5 -20t-4 -11q-1 -4 -3 -16t-3 -16zM162 329v6q0 2 2.5 12t3.5 13q1 5 3.5 15t5.5 20t6 18.5
t4 10.5t2.5 9.5t3.5 15.5t4 14.5t3 6.5q8 6 10 1q1 -1 2.5 -9t1.5 -12q0 -11 -1.5 -26.5l-3 -31l-3 -31t-1.5 -26.5q0 -3 1 -5.5t0 -4.5t-6.5 -2.5t-18.5 0.5q-2 0 -9.5 2t-9.5 4z" />
    <glyph glyph-name=".0199" unicode="&#xc7;" horiz-adv-x="444" 
d="M100 42q-12 -18 -9 -29t2 -13q-2 -2 3.5 -9t12.5 -15t13.5 -14t7.5 -5q16 -9 31.5 -19l28 -18.5l20 -14t7.5 -6.5q1 -1 1.5 -9.5t0.5 -11.5q0 -5 -0.5 -13t-1.5 -9q0 -2 -5.5 -7t-7.5 -8q-3 -2 -9.5 -8.5t-10.5 -8.5q0 -1 -9 -2t-11 -1q-3 -1 -9 -0.5t-8 0.5l-4.5 1
t-10 2.5l-11 3t-6.5 1.5q1 1 -4 4t-13 6t-19 3.5t-22 -2.5l-7 -10l-5 -10q-3 -5 6 -14t22.5 -18t29 -15t24.5 -6l41 2q3 0 10.5 2.5l10.5 3.5q7 1 16.5 4.5t11.5 4.5q5 2 19.5 13l21.5 16q2 1 6.5 6.5t6.5 8.5q1 2 4.5 4.5t3.5 4.5q2 2 4.5 7t2.5 6v44q-1 2 -3 10t-4 10
q-3 4 -13 13.5l-15 14.5q-2 2 -6 4.5t-10 7.5q-9 6 -19 13.5l-19.5 14.5l-17 13t-11.5 8q2 11 4.5 14t5.5 2t7 -3.5t8 -2.5q8 -3 17.5 -6t16.5 -7h80q5 0 13 1t16.5 3t16 5.5t11.5 9.5q1 1 6 3.5t10 5.5l10 6t6 4q3 2 13 12t12 13q2 2 6.5 11.5t6.5 14.5v6q-8 25 -13 25
q-1 0 -7.5 0.5t-9.5 0.5t-8.5 -0.5t-6.5 -0.5t-8.5 -8l-12.5 -13q-2 -2 -8.5 -7t-14.5 -10q-2 -1 -6.5 -3t-6.5 -3q-3 -2 -8.5 -4t-8.5 -2q1 0 -7.5 -0.5t-22.5 -0.5h-28t-26 1q-8 1 -22.5 4t-27.5 8q-8 5 -17 10t-18 12q-2 2 -3.5 4.5t-3.5 5.5l-2 -3q-11 9 -21 19.5
t-17 21.5q-1 1 -6 10.5t-7 14.5l-7 17.5t-6 14.5q0 2 -1 7t-2 11l-2 11.5t-1 8.5q0 1 -0.5 14t-0.5 20t0.5 20.5t0.5 14.5q0 3 1 8.5l2 11.5t2 11t1 7q1 6 4 13.5l6 15t6 13.5t5 9q2 4 9 15l15 23l15.5 23t10.5 15l13.5 14l20.5 21l21 21t15 13q2 1 9.5 3.5t9.5 2.5
q5 2 14.5 4.5t10.5 2.5t8 -2.5t11 -4.5q2 0 6.5 -2.5t6.5 -3.5q1 -1 9 -6.5t10 -6.5h25q1 1 3.5 6t2.5 7q0 1 0.5 5.5t0.5 7.5q0 2 -0.5 7l-0.5 5q0 2 -2.5 7t-3.5 6q-3 3 -13 10.5t-12 8.5q-3 2 -15 4t-17 2q-1 1 -15 1h-37q-11 0 -11 -1q-2 0 -11.5 -5t-14.5 -7
q-3 -2 -13 -9.5t-12 -9.5l-57 -57q-1 -1 -8 -10.5t-11 -14.5q-9 -14 -17 -25t-15 -22.5t-13.5 -24.5t-12.5 -30q-1 -2 -3.5 -9.5t-2.5 -9.5q-2 -5 -4 -13l-4 -16l-3.5 -14t-1.5 -7v-9q0 -7 -0.5 -16.5t-0.5 -19.5v-27q0 -8 0.5 -18t0.5 -19v-11q2 -4 6.5 -16t6.5 -16
q1 -3 5 -12.5t9.5 -20l10 -19t6.5 -11.5q2 -2 6.5 -9.5t6.5 -9.5t9 -9.5t10 -9.5t9.5 -7.5t12.5 -11.5z" />
    <glyph glyph-name=".0200" unicode="&#xc8;" horiz-adv-x="362" 
d="M29 84q-1 7 -3 23t-3.5 33.5t-3.5 33.5t-3 23q0 3 -1 9.5t-2 14t-2 14t-1 9.5v246q0 1 7 14.5t12 21.5q3 5 8.5 7l10.5 4q4 2 11 4.5t8 2.5h38h38q7 0 25 -2t38 -4t38 -4t24 -3q2 0 6.5 -2t6.5 -3q1 -2 3.5 -6.5t2.5 -6.5q1 0 1 -3v-6v-6q0 -3 -1 -3q-1 -2 -5.5 -6.5
t-6.5 -4.5h-189q-4 0 -6 -7q-1 0 -3 -7t-4 -10q-1 -4 -3.5 -13t-2.5 -11v-9v-9q1 -11 2 -27l2 -31t1.5 -26l0.5 -11l7 -7q4 0 16 0.5t25 0.5t24.5 -0.5t16.5 -0.5q3 0 12 -0.5t18.5 -1.5l18.5 -2t13 -2q2 0 9.5 -2.5t9.5 -2.5q2 -1 11.5 -3t20 -3.5t20 -3t11.5 -2.5
q7 0 13 -5.5t6 -7.5q1 0 1 -4v-4v-6q0 -3 -1 -4l-2 -2t-4 -3q-6 -6 -13 -6l-8 -0.5t-13 -0.5q-4 0 -13 0.5t-10 0.5q-2 0 -8 1t-13 2l-13.5 2t-9.5 1q-2 1 -13 3t-13 2q-3 0 -18 1t-29 1h-16h-11q-11 0 -20.5 -1t-11.5 -1l-6 -5q-1 -1 -1 -10v-12v-18q0 -13 1 -14
q0 -2 0.5 -8.5t1.5 -14l2 -14.5t2 -10q1 -4 3 -16q2 -11 3 -14t2 -9q2 -6 6 -16t5 -11q0 -1 2.5 -3t3.5 -3q3 -3 10.5 -7t8.5 -5q3 -2 13 -4t13 -2q1 -1 14 -1h19h20q14 0 15 1q4 0 16 2t16 4l11.5 5.5l13.5 6.5q2 1 9.5 5.5t9.5 5.5q2 2 7 4t6 3h16h15q5 -2 7 -7v-5v-6
q-1 -2 -6 -9t-7 -9l-10 -9q-7 -7 -9 -8.5l-13 -9.5q-10 -7 -12 -8.5t-10 -9.5l-9 -9q-2 -1 -9.5 -0.5t-9.5 0.5q-3 0 -8.5 -1t-11.5 -1.5t-11 -1.5t-7 -2q-2 0 -9.5 -3t-9.5 -3h-34h-35q0 1 -2.5 3.5t-3.5 2.5q-2 1 -12.5 2.5t-12.5 3.5q-2 1 -9.5 8.5l-9.5 9.5q-1 1 -6.5 3
t-6.5 3q-4 3 -13.5 12l-11.5 11q-2 3 -7 12t-6 13zM68 741v13q1 1 3 3.5t4 2.5l3.5 0.5t5.5 0.5t5.5 -0.5t4.5 -0.5q5 0 9 -3.5t9 -8.5l26 -26q2 -2 8.5 -7l15 -11l16 -11.5l11.5 -8.5q3 0 14 -8.5t17 -10.5q6 -3 13.5 -5.5t18.5 -6.5q2 -1 12.5 -3.5t12.5 -3.5t7 -5.5
t6 -6.5q0 -1 0.5 -6.5t0.5 -7.5t-0.5 -6.5t-0.5 -5.5q-1 -1 -8 -3t-11 -3h-13q-32 0 -57 13q-1 0 -6 2.5t-6 3.5q-2 0 -6.5 1.5t-10 4l-10 4.5t-5.5 3q-2 1 -9.5 9t-9.5 10q-2 1 -9.5 6t-9.5 6q-3 2 -13 12t-12 14q-2 2 -9.5 11.5t-9.5 13.5q-2 2 -4.5 6.5t-2.5 6.5v12z" />
    <glyph glyph-name=".0201" unicode="&#xc9;" horiz-adv-x="362" 
d="M29 83q-1 7 -3 23t-3.5 33.5t-3.5 33.5t-3 23q0 3 -1 9.5t-2 14t-2 14t-1 9.5v243q0 1 7 14.5t12 21.5q3 5 8.5 7l10.5 4q4 2 11 4.5t8 2.5h38h38q7 0 25 -2t38.5 -4t38.5 -4t24 -3q2 0 6.5 -2t6.5 -3q1 -2 3.5 -6t2.5 -6q1 0 1 -4v-6v-5q0 -3 -1 -3q-1 -3 -5.5 -7
t-6.5 -4h-190q-4 0 -6 -7q-1 -1 -3 -7.5t-4 -10.5q-1 -3 -3.5 -12t-2.5 -11v-9v-9q1 -11 2 -27l2 -31t1.5 -26l0.5 -11l7 -6q4 0 16 0.5t25 0.5t24.5 -0.5t16.5 -0.5q3 0 12 -0.5t19 -1.5t19 -2t13 -2q2 0 9.5 -2.5t9.5 -2.5q2 -1 11.5 -3t20 -3.5t20 -3.5t11.5 -3
q7 0 13 -5t6 -7q1 0 1 -4v-4v-6q0 -3 -1 -4l-2 -2t-4 -3q-6 -6 -13 -6l-8 -0.5t-13 -0.5q-4 0 -13 0.5t-10 0.5q-2 0 -8 1t-13 2l-13.5 2t-9.5 1q-2 1 -13 3t-13 2q-3 0 -18.5 1t-29.5 1h-16h-11q-11 0 -20.5 -1t-11.5 -1l-6 -5q-1 -1 -1 -10v-12v-18q0 -13 1 -14
q0 -2 0.5 -8t1.5 -13.5l2 -14.5t2 -10q1 -4 3 -16q2 -11 3 -14t2 -9q2 -6 6 -16t5 -11q0 -1 2.5 -3t3.5 -3q3 -2 10.5 -6.5t8.5 -5.5q3 -2 13 -3.5t13 -1.5q1 -1 14 -1h20h20q14 0 15 1q4 0 16 1.5t16 3.5l11.5 5.5l13.5 6.5q2 1 9.5 6t9.5 6q2 2 7 3.5t6 2.5h16h15
q5 -2 7 -6v-6v-6q-1 -2 -6 -8.5t-7 -8.5l-10 -10q-7 -6 -9 -8t-13 -10q-10 -6 -12 -7.5t-10 -9.5l-9 -9q-2 -1 -9.5 -0.5t-9.5 0.5q-3 0 -8.5 -1t-11.5 -1.5t-11 -1.5t-7 -2q-2 0 -9.5 -3t-9.5 -3h-35h-35q0 1 -2.5 3.5t-3.5 2.5q-2 1 -12.5 2.5t-12.5 3.5q-2 1 -9.5 8.5
l-9.5 9.5q-1 1 -6.5 3t-6.5 3q-2 1 -5.5 4.5t-7.5 7t-7.5 7l-4.5 4.5q-2 3 -7 12t-6 12zM283 745l11 -6q1 -1 2.5 -4t0.5 -5l-1 -3.5t-2 -5.5q-2 -2 -3.5 -5t-2.5 -3q-2 -5 -6.5 -7l-11.5 -5l-35 -11q-3 -1 -10.5 -5l-16.5 -9l-17.5 -9.5l-12.5 -6.5q-1 -2 -13 -8t-17 -11
q-9 -6 -25 -24q-2 -1 -9 -9t-9 -9q-1 -2 -7.5 -5t-8.5 -2q-1 0 -6 2t-7 3q-2 2 -5.5 4t-4.5 2q-1 1 0 8.5t3 11.5l5 12q15 29 37 45q1 1 5.5 4.5t5.5 3.5q0 1 3.5 5t8 8t8.5 7t6 4q1 2 11.5 4.5t13.5 3.5q2 2 9.5 6t9.5 6q3 2 16 6.5t18 4.5q3 2 15 4t16 2q4 2 8 2q5 0 7 -1
z" />
    <glyph glyph-name=".0202" unicode="&#xca;" horiz-adv-x="362" 
d="M29 86q-1 7 -3 23t-3.5 34.5t-3.5 34.5t-3 23q0 3 -1 10l-2 14.5t-2 14t-1 9.5v250l2 4.5t5 10.5t6.5 12t5.5 10q3 5 8.5 7.5t10.5 4.5q4 2 11 4t8 2h37h38q7 0 25 -1.5t38.5 -3.5t38.5 -4t24 -3q2 0 6 -2.5t6 -3.5q1 -2 3.5 -6t2.5 -6q1 0 1 -4v-6v-6q0 -3 -1 -3
q-1 -3 -5.5 -7t-6.5 -4h-188q-4 0 -6 -7q-1 -1 -3 -8t-4 -10q-1 -4 -3.5 -13t-2.5 -11v-9v-10q1 -11 2 -27.5l2 -32t1.5 -26.5l0.5 -11l7 -7q4 0 15.5 0.5t24.5 0.5t24.5 -0.5t16.5 -0.5q3 0 12 -0.5t19 -1t19 -1.5t13 -2q2 0 9.5 -3t9.5 -3q2 -1 11 -3t20 -3.5t20 -3.5
t11 -3q7 0 13 -5t6 -7q1 0 1 -4v-5v-6q0 -2 -1 -3l-2 -2.5t-4 -3.5q-6 -6 -13 -6l-8 -0.5t-13 -0.5q-4 0 -12.5 0.5t-9.5 0.5q-2 0 -8 1t-13 2l-13.5 2t-9.5 1q-2 1 -13 3.5t-13 2.5q-3 0 -18.5 0.5t-29.5 0.5h-16h-11q-11 0 -20 -0.5t-11 -0.5l-6 -6q-1 -1 -1 -10v-12v-19
q0 -13 1 -14q0 -2 0.5 -8.5t1.5 -14l2 -15t2 -10.5q1 -4 3 -17q2 -11 3 -14t2 -9l5.5 -16.5t4.5 -11.5q0 -1 2.5 -2.5t3.5 -2.5q3 -3 10.5 -7.5t8.5 -5.5q3 -2 13 -4t13 -2q1 -1 14 -1h20h20q14 0 15 1q4 0 16 2t16 4q2 1 11 6t13 7q2 1 9.5 5.5t9.5 5.5q2 2 7 4t6 3h16h15
q5 -2 7 -7v-6v-5q-1 -2 -6 -9.5t-7 -9.5l-10 -9l-5 -5t-4 -3.5t-4.5 -4t-8.5 -6.5q-10 -6 -12 -8l-10 -10l-9 -8q-2 -1 -9 -0.5t-9 0.5q-3 0 -8.5 -1l-11.5 -2t-11 -2t-7 -2q-2 0 -9.5 -3t-9.5 -3h-35h-35q0 1 -2.5 3.5t-3.5 2.5q-2 1 -12.5 3t-12.5 4q-1 0 -3.5 2.5
l-5.5 5.5t-5.5 6t-3.5 4t-6.5 3t-6.5 3q-2 1 -5.5 4.5l-7.5 7.5l-7.5 7.5l-4.5 4.5q-2 2 -7 11.5t-6 13.5zM3 601q0 1 0.5 2l0.5 1q0 3 2.5 8l3.5 7l18 22q2 1 8 6.5l13 11.5l13 11t9 7q1 1 6 4t10.5 7l10 7t5.5 5q2 1 9 7.5t9 7.5q1 0 5.5 2t10 5t10 5t5.5 2q2 1 6.5 4
t5.5 4q3 2 10.5 4.5t8.5 2.5t10 0.5t14 0.5t15 -0.5t11 -0.5q5 0 13 -4.5t14 -8.5q8 -6 16.5 -11t10.5 -5q2 -2 7 -7.5l11 -12.5l11.5 -14l8.5 -11q2 -2 3.5 -7t2.5 -8v-7v-7q-1 -2 -2.5 -7t-3.5 -8q-2 0 -7.5 -0.5t-7.5 -0.5q-4 0 -10 0.5l-6 0.5q-2 0 -6 3t-6 4
q-1 1 -3 7.5t-3 7.5q-2 1 -11 7t-14 8q-3 2 -10 4.5t-8 2.5h-16h-16q-1 0 -7.5 -2.5t-10.5 -4.5q-3 -1 -7.5 -3.5t-9.5 -5l-9 -4.5t-5 -2l-10 -6.5t-15 -9l-15 -8.5t-9 -5l-7 -8q-2 -2 -14 -11t-16 -11l-14.5 -8.5t-10.5 -5.5q-1 -1 -6 -1h-7h-6q-5 0 -6 1q-2 0 -6 7t-6 15
l-0.5 1t-0.5 3z" />
    <glyph glyph-name=".0203" unicode="&#xcb;" horiz-adv-x="362" 
d="M29 89q1 -4 6 -13.5t7 -12.5l4.5 -4.5l7.5 -7.5t7.5 -8t5.5 -5q1 -1 6.5 -3t6.5 -3q2 -2 9.5 -10t9.5 -9q2 -2 12.5 -4t12.5 -3q1 0 3.5 -2.5t2.5 -3.5h70q2 0 9.5 3t9.5 3q2 1 7 2t11 2l11.5 2t8.5 1q2 0 9.5 -0.5t9.5 0.5l9 9q4 4 6 6.5t4 4l4.5 3.5t7.5 5q6 4 8.5 6.5
t4.5 4t4 3.5l5 5l10 10q2 2 7 9.5t6 9.5v12q-2 5 -7 7h-31q-1 -1 -6 -3t-7 -4q-2 -1 -9.5 -6t-9.5 -6l-13.5 -7l-11.5 -6q-4 -2 -16 -4t-16 -2q-1 -1 -15 -1h-40q-13 0 -14 1q-3 0 -13 2t-13 4q-1 1 -8.5 5.5t-10.5 7.5q-1 1 -3.5 3t-2.5 3q-1 1 -5 11.5t-6 17.5q-1 6 -2 9
t-3 15q-2 13 -3 17t-2 11.5l-2 15.5t-1.5 14.5t-0.5 8.5q-1 1 -1 15v32q0 9 1 10l6 6q2 0 11.5 1t20.5 1h27q14 0 29.5 -1t18.5 -1q2 0 13 -2.5t13 -3.5q3 0 9.5 -1l13.5 -2t13 -2t8 -1q1 0 10 -0.5t13 -0.5q5 0 13 0.5l8 0.5q7 0 13 6q2 1 4 3.5l2 2.5q1 1 1 4v11q0 4 -1 4
q0 2 -6 7.5t-13 5.5q-2 1 -11.5 3t-20 3.5t-20 3.5t-11.5 3q-2 0 -9.5 3t-9.5 3q-4 1 -13 2t-19 2t-19 1.5t-12 0.5q-5 0 -16.5 0.5t-24.5 0.5t-25 -0.5t-16 -0.5l-7 7l-0.5 11.5t-1.5 27.5l-2 33.5t-2 28.5v19q0 2 2.5 11.5l3.5 13.5q2 4 4 11t3 8q2 7 6 7h190q2 0 6.5 4.5
t5.5 7.5q1 0 1 3v12q0 4 -1 4q0 2 -2.5 6.5t-3.5 6.5q-2 1 -6.5 3.5t-6.5 2.5q-6 1 -24 3t-38.5 4t-38.5 4t-25 2h-76q-1 0 -8 -2.5t-11 -4.5q-5 -2 -10.5 -4.5t-8.5 -7.5q-2 -4 -5.5 -10t-6.5 -12t-5 -11l-2 -5v-260q0 -3 1 -10t2 -15t2 -15t1 -10q1 -7 3 -24t3.5 -36
t3.5 -36t3 -24zM46 719v-18q0 -7 2 -9q0 -6 10 -7q3 -3 10.5 -5.5t8.5 -3.5h31l11 3.5t9 5.5q2 1 5.5 6.5t4.5 9.5q0 1 1 2.5l1 1.5q0 1 -1 3l-1 2q-1 4 -4.5 12.5t-5.5 11.5l-4.5 4.5t-5.5 3.5l-11 1t-16 1t-13.5 -1t-10.5 -1q-4 -2 -10.5 -8t-8.5 -9q-2 0 -2 -6zM257 709
v-14q0 -5 1 -6q0 -5 6 -6q2 -2 6.5 -4t5.5 -3h19q2 1 7 3t6 4q1 1 3 5.5t3 6.5q0 1 0.5 2l0.5 1q0 1 -0.5 2.5l-0.5 1.5q-1 3 -3 10t-3 9q-1 1 -3 3.5t-3 2.5t-7.5 0.5t-9.5 0.5t-8.5 -0.5t-6.5 -0.5q-2 -1 -6.5 -6t-5.5 -7q-1 0 -1 -5z" />
    <glyph glyph-name=".0204" unicode="&#xcc;" horiz-adv-x="121" 
d="M10 320v16q0 4 1 15l2 23t2 22.5t1 14.5q1 5 3 18t4 17q0 1 2 6t4 11t4 11t2 6q1 2 3 12t2 12q1 0 3 2t4 3q2 2 6.5 4t5.5 2t4.5 0.5t5.5 0.5t5.5 -0.5l3.5 -0.5q2 0 7 -2.5t6 -3.5q0 -2 4.5 -10.5l6.5 -12.5l1 -2q0 -1 -0.5 -2t-0.5 -2q0 -3 -1.5 -11.5t-4 -18t-4 -18
t-1.5 -10.5q-1 -3 -2 -9l-2 -12.5t-1.5 -12t-0.5 -6.5q-1 -8 -2.5 -22t-2.5 -29t-1.5 -26.5t-0.5 -14.5q0 -10 0.5 -34t1.5 -51t2.5 -51t2.5 -33q0 -2 1.5 -11t3 -20t3.5 -21.5t3 -16.5q0 -2 2.5 -8t3.5 -9q1 -2 3.5 -6.5t3.5 -5.5v-3v-3q-1 0 -6.5 -2.5t-6.5 -2.5
q-1 -1 -3 -3.5l-2 -2.5q-2 -1 -14.5 -3t-17.5 -3h-6h-6q-5 1 -14.5 3.5l-9.5 2.5q-2 2 -1 8.5t1 8.5q0 3 -1 14t-2.5 23.5t-2.5 23.5t-1 14q0 6 -1 31.5t-2 58l-2 64t-1 49.5v19zM-48 702v13q1 1 3 3.5t4 2.5l3.5 0.5t5.5 0.5t5.5 -0.5t4.5 -0.5q5 0 9 -3.5t9 -8.5l26 -26
q2 -2 8.5 -7l15 -11l16 -11.5l11.5 -8.5q3 0 14 -8.5t17 -10.5q6 -3 13.5 -5.5t18.5 -6.5q2 -1 12.5 -3.5t12.5 -3.5t7 -5.5t6 -6.5q0 -1 0.5 -6.5t0.5 -7.5t-0.5 -6.5t-0.5 -5.5q-1 -1 -8 -3t-11 -3h-13q-32 0 -57 13q-1 0 -6 2.5t-6 3.5q-2 0 -6.5 1.5t-10 4l-10 4.5
t-5.5 3q-2 1 -9.5 9t-9.5 10q-2 1 -9.5 6t-9.5 6q-3 2 -13 12t-12 14q-2 2 -9.5 11.5t-9.5 13.5q-2 2 -4.5 6.5t-2.5 6.5v12z" />
    <glyph glyph-name=".0205" unicode="&#xcd;" horiz-adv-x="121" 
d="M10 323v16q0 5 1 16l2 23t2 22.5t1 14.5q1 5 3 18t4 17q0 1 1.5 6t4 11t4 11t1.5 6q1 2 3.5 12.5t2.5 12.5q1 0 3 2t4 3q2 2 6.5 4t5.5 2t4 0.5t5 0.5t5.5 -0.5l3.5 -0.5q2 0 7 -2.5t6 -3.5l5 -10.5l6 -12.5l0.5 -1t0.5 -2t-0.5 -2t-0.5 -2q0 -2 -1.5 -10.5t-4 -18.5
t-4 -18.5t-1.5 -10.5q-1 -3 -2 -9l-2 -12.5t-1.5 -12t-0.5 -7.5q-1 -7 -2.5 -21.5t-2.5 -29.5t-1.5 -27t-0.5 -15q0 -10 0.5 -34t1.5 -51t2.5 -51t2.5 -33q0 -2 1.5 -11l3.5 -20.5l4 -22t3 -16.5q0 -2 2 -8.5t3 -9.5q1 -2 3.5 -6.5t3.5 -5.5v-3v-2q-1 -1 -6 -3.5t-6 -2.5
q-1 -1 -3 -3.5t-3 -2.5q-2 -1 -14 -3t-17 -3h-6h-6q-5 1 -14.5 3.5l-9.5 2.5q-2 2 -1 8.5t1 8.5q0 3 -1 14.5t-2.5 24t-2.5 23.5t-1 14q0 6 -1 32t-2 58l-2 64t-1 50v20zM242 735l11 -6q1 -1 2.5 -4t0.5 -5l-1 -3.5t-2 -5.5q-2 -2 -3.5 -5t-2.5 -3q-2 -5 -6.5 -7l-11.5 -5
l-35 -11q-3 -1 -10.5 -5l-16.5 -9l-17.5 -9.5l-12.5 -6.5q-1 -2 -13 -8t-17 -11q-9 -6 -25 -24q-2 -1 -9 -9t-9 -9q-1 -2 -7.5 -5t-8.5 -2q-1 0 -6 2t-7 3q-2 2 -5.5 4t-4.5 2q-1 1 0 8.5t3 11.5l5 12q15 29 37 45q1 1 5.5 4.5t5.5 3.5q0 1 3.5 5t8 8t8.5 7t6 4
q1 2 11.5 4.5t13.5 3.5q2 2 9.5 6t9.5 6q3 2 16 6.5t18 4.5q3 2 15 4t16 2q4 2 8 2q5 0 7 -1z" />
    <glyph glyph-name=".0206" unicode="&#xce;" horiz-adv-x="121" 
d="M10 325v16q0 5 1 16t2 23.5t2 23t1 14.5q1 5 3 18.5t4 17.5q0 1 2 6t4 11t4 11t2 6q1 2 3.5 12t2.5 12q1 0 3 2.5t4 3.5q2 2 6.5 4t5.5 2t4.5 0.5t5.5 0.5t5.5 -0.5l3.5 -0.5q2 0 7 -2.5t6 -3.5l5.5 -11t6.5 -12l0.5 -1t0.5 -2t-0.5 -2t-0.5 -2q0 -2 -2 -10.5t-4 -18.5
t-4 -18.5t-2 -11.5q-1 -3 -2 -9l-2 -12.5t-1.5 -12t-0.5 -7.5q-1 -8 -2.5 -22t-2.5 -29t-1.5 -27t-0.5 -15q0 -10 0.5 -34.5t1.5 -52t2.5 -52t2.5 -33.5q0 -2 1.5 -11l3.5 -20.5l4 -22t3 -16.5q0 -2 2.5 -8.5t3.5 -8.5l3.5 -7t3.5 -6v-2v-3q-1 -1 -6.5 -3.5t-6.5 -2.5l-6 -6
q-2 -1 -14.5 -3t-17.5 -3h-6h-6q-5 1 -15 3.5l-10 2.5q-2 2 -1 8.5t1 8.5q0 3 -1 14.5t-2.5 24.5t-2.5 24t-1 14q0 6 -1 32t-2 58.5l-2 65t-1 50.5v19zM-115 595q0 1 0.5 2l0.5 1q0 3 2.5 8l3.5 7l18 22q2 1 8 6.5l13 11.5l13 11t9 7q1 1 6 4t10.5 7l10 7t5.5 5q2 1 9 7.5
t9 7.5q1 0 5.5 2t10 5t10 5t5.5 2q2 1 6.5 4t5.5 4q3 2 10.5 4.5t8.5 2.5t10 0.5t14 0.5t15 -0.5t11 -0.5q5 0 13 -4.5t14 -8.5q8 -6 16.5 -11t10.5 -5q2 -2 7 -7.5l11 -12.5l11.5 -14l8.5 -11q2 -2 3.5 -7t2.5 -8v-7v-7q-1 -2 -2.5 -7t-3.5 -8q-2 0 -7.5 -0.5t-7.5 -0.5
q-4 0 -10 0.5l-6 0.5q-2 0 -6 3t-6 4q-1 1 -3 7.5t-3 7.5q-2 1 -11 7t-14 8q-3 2 -10 4.5t-8 2.5h-16h-16q-1 0 -7.5 -2.5t-10.5 -4.5q-3 -1 -7.5 -3.5t-9.5 -5l-9 -4.5t-5 -2l-10 -6.5t-15 -9l-15 -8.5t-9 -5l-7 -8q-2 -2 -14 -11t-16 -11l-14.5 -8.5t-10.5 -5.5
q-1 -1 -6 -1h-7h-6q-5 0 -6 1q-2 0 -6 7t-6 15l-0.5 1t-0.5 3z" />
    <glyph glyph-name=".0207" unicode="&#xcf;" horiz-adv-x="121" 
d="M10 348v17q0 5 1 17l2 25t2 24.5t1 15.5q0 3 1 8.5l2 11.5t2 11t2 7q0 1 2 6.5t4 12t4 12t2 6.5q1 2 3.5 13t2.5 13q1 0 3 2.5t4 3.5q2 2 6.5 4t5.5 2t4.5 0.5t5.5 0.5t5.5 -0.5l3.5 -0.5q2 0 7 -2.5t6 -3.5l5.5 -11.5l6.5 -13.5l0.5 -1t0.5 -2t-0.5 -2t-0.5 -2
q0 -3 -2 -12t-4 -19.5t-4 -19.5t-2 -12q-1 -3 -2 -9.5l-2 -13.5t-1.5 -13t-0.5 -8q-1 -8 -2.5 -23.5t-2.5 -31.5t-1.5 -29t-0.5 -16q0 -11 0.5 -37t1.5 -55.5t2.5 -55t2.5 -35.5q0 -2 1.5 -12t3.5 -22l4 -23.5l3 -17.5q0 -2 2.5 -9l3.5 -10l3.5 -7t3.5 -6v-3v-3
q-1 -1 -6.5 -3.5t-6.5 -2.5q-1 -1 -3 -3.5t-3 -3.5q-2 -1 -14.5 -3t-17.5 -3h-6h-6q-5 1 -15 3.5l-10 2.5q-2 2 -1 9.5t1 9.5q0 3 -1 15t-2.5 26t-2.5 26t-1 15q0 6 -1 34t-2 63l-2 69.5t-1 53.5v21zM-49 713v-18q0 -7 2 -9q0 -6 10 -7q3 -3 10.5 -5.5t8.5 -3.5h31l11 3.5
t9 5.5q2 1 5.5 6.5t4.5 9.5q0 1 1 2.5l1 1.5q0 1 -1 3l-1 2q-1 4 -4.5 12.5t-5.5 11.5l-4.5 4.5t-5.5 3.5l-11 1t-16 1t-13.5 -1t-10.5 -1q-4 -2 -10.5 -8t-8.5 -9q-2 0 -2 -6zM162 703v-14q0 -5 1 -6q0 -5 6 -6q2 -2 6.5 -4t5.5 -3h19q2 1 7 3t6 4q1 1 3 5.5t3 6.5
q0 1 0.5 2l0.5 1q0 1 -0.5 2.5l-0.5 1.5q-1 3 -3 10t-3 9q-1 1 -3 3.5t-3 2.5t-7.5 0.5t-9.5 0.5t-8.5 -0.5t-6.5 -0.5q-2 -1 -6.5 -6t-5.5 -7q-1 0 -1 -5z" />
    <glyph glyph-name=".0209" unicode="&#xd1;" horiz-adv-x="489" 
d="M270 38q2 -1 9.5 -3t9.5 -3q0 -1 4 -3.5l9.5 -6t11.5 -6.5t10 -6q7 -3 9 -4t12 -3q10 -1 13 -3h26q2 0 6 2.5t6 3.5l32 32q1 1 3 6t3 7q2 5 6.5 19t6.5 19q6 20 10.5 41l8.5 41q1 3 2 9l2 12t1.5 11t0.5 6q1 6 2.5 19t2.5 27.5t1.5 26.5t0.5 16v158q0 5 -0.5 17.5
t-1.5 26.5t-2.5 26.5t-2.5 18.5q0 1 -2 8t-4 11q-1 2 -3 6.5t-3 5.5q-1 2 -3.5 4t-3.5 3h-19q-2 -1 -6.5 -6t-5.5 -7q-1 -12 -2.5 -41.5t-2.5 -63t-1.5 -63t-0.5 -41.5v-63q0 -4 -1 -14.5t-2 -22.5l-2 -23t-1 -16q-1 -5 -3 -19t-3 -19q-1 -3 -2.5 -10t-4 -15.5t-4 -15.5
t-2.5 -10l-3 -9t-4.5 -12.5t-4 -11.5l-1.5 -5q-2 -2 -9 -9.5t-10 -9.5l-2 -0.5t-3 -0.5q-2 0 -4.5 0.5l-2.5 0.5q-2 1 -7 3t-6 3q-2 2 -8 8.5l-13 13.5l-13.5 13.5l-9.5 9.5q-2 1 -6.5 6l-10 11.5t-10 12.5t-5.5 8q-8 11 -14 21t-11 23q-2 5 -6 14t-8.5 18t-7.5 16t-4 9
q0 2 -2.5 9.5t-6 16.5t-6.5 17.5t-4 13.5q-1 2 -3 8.5l-4 13.5t-3.5 13.5t-1.5 8.5q-2 4 -7 23l-10.5 40.5t-9.5 40t-5 23.5q0 1 -2 6.5l-4 11.5l-4 11.5t-3 8.5q-1 2 -3 7t-3 6l-19 19q-2 1 -6.5 3t-6.5 3h-12q-2 0 -6.5 -2.5t-6.5 -3.5l-13 -13q-2 -2 -6 -12t-6 -13
q-2 -4 -6.5 -18l-6.5 -20q-1 -5 -3 -13t-4.5 -16t-4 -14.5t-1.5 -7.5q0 -5 -1 -19t-2 -30l-2 -31t-1 -21v-19q0 -16 -0.5 -38t-0.5 -44v-63q0 -19 0.5 -40.5t0.5 -41.5v-27q0 -4 3 -18t3 -20l3.5 -7t3.5 -5h50q1 0 3.5 2t3.5 4l6.5 13.5l5.5 11.5q0 1 0.5 3t0.5 3
q0 2 -0.5 4.5l-0.5 2.5q0 3 -3 13t-3 12q0 1 -1 12.5t-2 26.5l-2 31t-1 25v7q0 11 1 40l2 61l2 61t1 40q2 -1 6.5 -5.5l6.5 -6.5q2 -8 4.5 -14.5t4.5 -14.5q5 -10 9.5 -24t6.5 -17l18 -51.5t20 -49.5q1 -3 4 -9l6 -12l5.5 -11t3.5 -6l7 -11l11 -17.5l11.5 -17.5t8.5 -11
q1 -2 6.5 -7t6.5 -6l7.5 -11l11.5 -17l11.5 -17.5zM69 648q-1 -1 -1 -6v-3q0 -3 2.5 -8.5t3.5 -7.5l4 -1l5 -2q2 2 10.5 9t10.5 10q2 2 8.5 12t10.5 15q0 1 2 5.5t3 5.5q2 2 10 6t10 6q11 -11 21 -25.5t21 -25.5q5 -7 15.5 -17l11.5 -11q1 -2 5.5 -4.5l10 -5.5l10.5 -5.5
t8 -3.5l35 -11l37 -12q1 1 9 1q5 0 13 2q4 1 10 3t11 7q10 4 22 24q1 3 4 8t6.5 10t6 9t2.5 5q2 3 5 14.5t5 15.5q3 22 3 40q0 15 -2 23q0 2 -3 4.5t-5 3.5l-3.5 -1t-4.5 -3q-18 -15 -22 -30t-12 -28q-1 -4 -4 -10.5t-3 -7.5q-2 -2 -10.5 -9t-11.5 -9q-2 -2 -9 -4t-10 -2
q-3 -2 -11.5 -1t-10.5 1l-25 8l-22 7q-2 1 -11.5 9t-13.5 13q-1 1 -6.5 7.5t-7.5 9.5q-4 3 -10.5 12.5t-8.5 13.5q-2 1 -7 11.5t-7 11.5q-2 2 -6.5 5.5t-5.5 5.5l-11 2l-11 4q-2 0 -7 -0.5t-8 -2.5q-1 0 -6.5 -5t-8.5 -8q-1 -2 -5 -7.5t-6 -7.5q-2 -3 -6.5 -11.5l-5.5 -10.5
q-2 -3 -5.5 -10l-7 -14.5l-6 -13t-2.5 -6.5t-1 -4t-1 -5z" />
    <glyph glyph-name=".0210" unicode="&#xd2;" horiz-adv-x="406" 
d="M10 241v41q0 2 3 18t3 24q1 5 3.5 16t3.5 13q1 3 3 8l4 10.5l3.5 10t1.5 6.5q3 5 9.5 17l13 25t13 24.5l9.5 16.5q1 2 8 10.5t11 12.5l4.5 4.5l7.5 7.5t7.5 7t5.5 4q1 2 5 5.5t9.5 7.5l10 7t6.5 5q2 0 7 2.5t6 2.5t8.5 1t16.5 2l18 2t14 1l2.5 0.5t4.5 0.5q1 0 3 -0.5
t3 -0.5q2 0 9.5 -2.5t9.5 -3.5t9 -5.5l10 -6.5l12 -11q1 -2 3.5 -8.5t3.5 -9.5v-6q0 -8 -3.5 -11t-3.5 -10v-3q2 -2 6.5 -7t9.5 -10t9.5 -10t6.5 -8l3 -2.5t3 -3.5q2 -2 6.5 -8.5t6.5 -8.5q1 -4 9 -17t10 -19q10 -21 18 -40.5t13 -41.5q2 -6 4.5 -17t2.5 -12v-36v-35
q0 -2 -2.5 -11t-4.5 -12q-2 -4 -5.5 -13l-7.5 -18.5l-7.5 -17.5t-4.5 -11q0 -2 -7.5 -13t-11.5 -16l-10 -14l-15 -21.5l-15 -21l-10 -13.5q-3 -1 -13 -3t-13 -3q-1 -1 -6 -3t-6 -3q-2 0 -7 0.5t-6 -0.5q-1 0 -6 -3t-7 -3h-25h-25q-2 0 -7 3t-6 3q-2 1 -12.5 2.5t-12.5 3.5
q-1 0 -5 3l-9 7l-10 8t-8 5q-2 2 -7 6.5l-10 9t-9 8.5t-5 6q-3 3 -9 10l-12 14.5l-11 14t-6 8.5q-2 3 -6 10l-8.5 14.5t-7.5 14t-4 8.5q0 1 -1 6.5t-2 12.5t-2 13t-1 9v41zM67 238v-8q1 -7 3 -22.5t3 -19.5q0 -4 5.5 -17l7.5 -18q2 -4 9.5 -17.5t9.5 -18.5q0 -1 5 -5t7 -6
q3 -2 8.5 -6.5l11.5 -9.5l11 -9t7 -5q3 -2 10 -6t9 -5q2 -2 9.5 -3.5t9.5 -2.5h7h6q4 1 13.5 3t11.5 3t9.5 5t9.5 6q3 2 8 6.5t10 9.5l9 9l5 5t8 12l11 17q1 2 3.5 6.5t2.5 5.5l7.5 18.5t5.5 16.5q1 3 3 14t3 16t2 13q2 12 3 24.5t1 15.5q0 1 -2.5 12.5t-3.5 16.5
q0 1 -1.5 5.5t-4 10t-4.5 11t-3 8.5q-2 5 -6 16t-6 14l-19 36q-5 6 -10 13t-10 11q-5 8 -13.5 17t-10.5 12q-2 1 -7.5 6l-11.5 10.5l-11.5 10.5t-7.5 7q-1 1 -5 1h-5h-6q-3 0 -3 -1q-3 0 -12.5 -4.5l-13.5 -6.5q-2 -2 -6.5 -6t-5.5 -6q-1 -1 -4 -5t-6 -8.5t-5.5 -9
t-3.5 -6.5q-2 -4 -7 -12.5t-10 -18l-9.5 -18t-5.5 -11.5q-1 -2 -3 -8.5t-3 -8.5q-1 -5 -3 -12t-4.5 -14.5t-4 -13.5t-1.5 -7q0 -2 -1 -9.5t-2 -16.5l-2 -18t-1 -14v-10zM85 739v13q1 1 3 3.5t4 2.5l3.5 0.5t5.5 0.5t5.5 -0.5t4.5 -0.5q5 0 9 -3.5t9 -8.5l26 -26q2 -2 8.5 -7
l15 -11l16 -11.5l11.5 -8.5q3 0 14 -8.5t17 -10.5q6 -3 13.5 -5.5t18.5 -6.5q2 -1 12.5 -3.5t12.5 -3.5t7 -5.5t6 -6.5q0 -1 0.5 -6.5t0.5 -7.5t-0.5 -6.5t-0.5 -5.5q-1 -1 -8 -3t-11 -3h-13q-32 0 -57 13q-1 0 -6 2.5t-6 3.5q-2 0 -6.5 1.5t-10 4l-10 4.5t-5.5 3
q-2 1 -9.5 9t-9.5 10q-2 1 -9.5 6t-9.5 6q-3 2 -13 12t-12 14q-2 2 -9.5 11.5t-9.5 13.5q-2 2 -4.5 6.5t-2.5 6.5v12z" />
    </font>
</defs>
</svg>
